Присоединяйтесь к нам в Telegram!, здесь всегда актуальный адрес сайта, оперативная поддержка и многое другое!!

>

5.9

iTunes

7.4

iTunes

9.4

1 сезон

1

7.4

2 сезон

7.2

iTunes

7.3

1 сезон

13

6.1

iTunes

8.3

Пиратка

30

ULTIMATE

pack

9.9

Лицензия

ВАЖНО

ИГРА 18+

pack

7.3

RePack

MK11

7.7

RePack

jed

7.8

RePack

fifa19

8.5

RePack

RDR2

RePack

NEED FOR SPEED™ PAYBACK

5 сезон

9 сезон

Бесстыжие 9 сезон

Все сериалы

все сериалы на PB.wtf

RePack

FAR CRY 5

Anonymous, доброй ночи, мы катастрофически не успеваем собрать деньги на оплату серверов, помогите нам пожалуйста 5,10,15р., для нас важна любая помощь . В качестве благодарности мы отключим Вам всю рекламу на сайте (укажите свой ник в строку Ваше имя)!

×
  
Magnet ссылка

Видео :Демис Руссос / Demis Roussos - Greatest Hits / Demis Roussos - Rain And Tears [2003- 2005 г., DVDRip, Оригинал] pb.wtf

Видео :Демис Руссос через торрент pb.wtf

Размер: 2.34 GB | Добавлен: 6 лет 9 мес. назад | Торрент скачан:53 раза
Смотреть онлайн Видео :Демис Руссос | Скачать    Ребята, помогите собрать деньги на оплату серверов!!!

07-02-2015 18:51 Видео :Демис Руссос Скачать торрент  

Видео :Демис Руссос / Demis Roussos - Greatest HitsГод выпуска: 2003
Страна: Греция Br Music Records
Жанр: Pop
Продолжительность: 01:57:34
Перевод: Оригинал

В ролях: Demis Roussos

Описание: Сборник лучших песен золотого голоса Греции. В сборник вошли лучшие песни знаменитого греческого певца Демиса Руссоса, записанные им с 1971 по 1980 год. Это именно те композиции, которые позволили сладкоголосому исполнителю покорить весь мир. Для ценителей творчества Демиса Руссоса.

Качество: DVDRip
Формат: AVI
Видео кодек: XviD
Аудио кодек: AC3
Видео: Xvid 704x528, 25fps, 1 213 Kbps
Аудио: Dolby AC3, 48000Hz, 6ch, 448kbps
Релиз от: Olegov
01. Rain & Tears
02. End Of The World
03. I Want To Live
04. Let Me Love Let Me Live
05. It's Five O'Clock
06. Spring Summer Winter & Fall
07. We Shall Dance
08. She Came Up From The North
09. Fire & Ice
10. No Way Out
11. End Of The Line
12. My Reason
13. When I'm A Kid
14. Forever & Ever
15. Velvet Mornings
16. My Friend The Wind
17. Goodbye My Love Goodbye
18. Someday Somewhere
19. From Souvenirs To Souvenirs
20. Perdoname
21. Happy To Be On An Island In The Sun
22. Can't Say How Much I Love You
23. So Dreamy
24. Kyrila
25. Life In The City
26. Seasons Of Love
27. Lament
28. Song without end
29. Pretender
30. Jay
31. Loving You
32. Graffiti (Spanish Version)
33. Meme Si (Petite Fille)
Скриншоты:
скриншот   скриншот   скриншот   скриншот  




General
Complete name : C:\Documents and Settings\Admin\Мои документы\Мои видеозаписи\DEMIS Roussos\Demis.Roussos.Greatest.Hits.2003.XviD.DVDRip.Kinozal.TV.avi
Format : AVI
Format/Info : Audio Video Interleave
File size : 1.37 GiB
Duration : 1h 57mn
Overall bit rate : 1 672 Kbps

Video
ID : 0
Format : MPEG-4 Visual
Format profile : Simple@L3
Format settings, BVOP : No
Format settings, QPel : No
Format settings, GMC : No warppoints
Format settings, Matrix : Default (H.263)
Codec ID : XVID
Codec ID/Hint : XviD
Duration : 1h 57mn
Source duration : 1h 57mn
Bit rate : 1 213 Kbps
Width : 704 pixels
Height : 528 pixels
Display aspect ratio : 4:3
Frame rate : 25.000 fps
Color space : YUV
Chroma subsampling : 4:2:0
Bit depth : 8 bits
Scan type : Progressive
Compression mode : Lossy
Bits/(Pixel*Frame) : 0.131
Stream size : 1 020 MiB (73%)
Writing library : XviD 1.1.2 (UTC 2006-11-01)

Audio
ID : 1
Format : AC-3
Format/Info : Audio Coding 3
Mode extension : CM (complete main)
Format settings, Endianness : Big
Codec ID : 2000
Duration : 1h 57mn
Bit rate mode : Constant
Bit rate : 448 Kbps
Channel(s) : 6 channels
Channel positions : Front: L C R, Side: L R, LFE
Sampling rate : 48.0 KHz
Bit depth : 16 bits
Compression mode : Lossy
Stream size : 377 MiB (27%)
Alignment : Aligned on interleaves
Interleave, duration : 32 ms (0.80 video frame)
Interleave, preload duration : 128 ms



Видео :Демис Руссос / Demis Roussos - Rain And TearsГод выпуска: 2005
Страна: Греция Music Products
Жанр: Pop
Продолжительность: 01:00:53
Перевод: Оригинал

В ролях: Demis Roussos

Описание: В Греции находится, два из семи чудес света, но этого певца можно смело отнести к третьему из чудес Греции, не зря Де́мис Ру́ссос отнесен к жемчужинам мирового вокала, такого голоса больше ни у кого нет и наверное не будет. Демис Руссос начал заниматься музыкой с восьми лет. По возвращении семьи в Грецию в начале 60-х, учился в музыкальном колледже в Афинах, на философском факультете Афинского университета, занимался в консерватории по классу гитары и контрабаса. В 1967 году перебрался во Францию, в Париж, где вместе с греческими эмигрантами Евангелисом Папатанассиу, ныне известным в музыкальном мире под псевдонимом Вангелис (Vangelis) и Лукасом Сидейрасом собрал группу "Aphrodite’s Child", исполнявшую прогрессив-рок. После распада группы Демис начал успешную сольную карьеру, исполняя песни разных композиторов, написанные специально для него. Пик его популярности пришелся на середину семидесятых годов. Не сумев пробиться в США, Демис добился успеха в Европе, где его песни неоднократно попадали в хит-парады. Сильный, высокий и проникновенный вокал и лирически-торжественный настрой его песен снискали ему широкую известность у слушателей во многих странах. На диске представлена компиляция по телевизионным выступлениям артиста и видео клипы.

Качество: DVDRip
Формат: AVI
Видео кодек: XviD
Аудио кодек: AC3
Видео: Xvid 688x512, 25fps, 2038kbps
Аудио: Dolby AC3, 48000Hz, stereo, 224kbps
Релиз от: best
01. Rain and tears
02. I want to live
03. The shepherd and the moon
04. Let me love, let me live
05. We shall dance
06. When I'm a kid
07. Forever and ever
08. Goodbye my love goodbye
09. Smile
10. My only fascination
11. When forever has gone
12. Schon wie Mona Lisa
13. From souvenirs to souvenirs
14. Vagabund der Liebe
15. Die Bouzouki die Nacht und der Wein
16. Kyrila
17. I need you
18. Rain and tears
Скриншоты:
скриншот   скриншот   скриншот   скриншот  




General
Complete name : C:\Documents and Settings\Admin\Мои документы\Мои видеозаписи\DEMIS Roussos\Demis.Roussos-Rain.And.Tears.2005.XviD.DVDRip.Tornado69.avi
Format : AVI
Format/Info : Audio Video Interleave
File size : 990 MiB
Duration : 1h 0mn
Overall bit rate : 2 273 Kbps
Writing application : Nandub v1.0rc2
Writing library : Nandub build 1853/release

Video
ID : 0
Format : MPEG-4 Visual
Format profile : Advanced Simple@L5
Format settings, BVOP : 1
Format settings, QPel : No
Format settings, GMC : No warppoints
Format settings, Matrix : Default (H.263)
Muxing mode : Packed bitstream
Codec ID : XVID
Codec ID/Hint : XviD
Duration : 1h 0mn
Bit rate : 2 039 Kbps
Width : 688 pixels
Height : 512 pixels
Display aspect ratio : 4:3
Frame rate : 25.000 fps
Color space : YUV
Chroma subsampling : 4:2:0
Bit depth : 8 bits
Scan type : Progressive
Compression mode : Lossy
Bits/(Pixel*Frame) : 0.232
Stream size : 888 MiB (90%)
Writing library : XviD 1.1.0 (UTC 2005-11-22)

Audio
ID : 1
Format : AC-3
Format/Info : Audio Coding 3
Mode extension : CM (complete main)
Format settings, Endianness : Big
Codec ID : 2000
Duration : 1h 0mn
Bit rate mode : Constant
Bit rate : 224 Kbps
Channel(s) : 2 channels
Channel positions : Front: L R
Sampling rate : 48.0 KHz
Bit depth : 16 bits
Compression mode : Lossy
Stream size : 97.6 MiB (10%)
Alignment : Split accross interleaves
Interleave, duration : 40 ms (1.00 video frame)
Interleave, preload duration : 500 ms

pb.wtf



Скачать Видео :Демис Руссос через торрент https://pic1.kartinco.top/images/81/9tpr8.jpg Скачать, смотреть онлайн Видео :Демис Руссос бесплантно в хорошем качестве Описание: Сборник лучших песен золотого голоса Греции. В сборник вошли лучшие песни знаменитого греческого певца Демиса Руссоса, записанные ... 10 10 7
Info! Золотая раздача, скачанное не засчитывается.
Торрент: Зарегистрирован [2015-02-07 18:51] · скачан: 53 раз
Статус: √ проверено
Размер: 2.34 GB
Как cкачать? Как скачать Видео :Демис Руссос через торрент | UTorrent



Последний раз редактировалось: lug30 (2015-02-07 19:07), всего редактировалось 1 раз

28-11-2019 20:33  

Отключить всю рекламу на сайте

07-02-2015 19:07 Видео :Демис Руссос Скачать торрент  

класссссссссссссссссссссссссссpb.wtf



07-02-2015 19:17 Видео :Демис Руссос Скачать торрент  

мне еще нравятся Julio Iglesias и Frank Sinatrapb.wtf



    Дорогой пользователь! Огромная просьба, поблагодарите релизера, оцените раздачу и оставьте свои комментарий, если Вы скачали Видео :Демис Руссос через торрент бесплатно!
    Комментировать посты могут только пользователи прошедшие не сложную регистрацию
    Показать сообщения:    

    Видео :Демис Руссос через торрент
    Скачать бесплатно Видео :Демис Руссос
    Видео :Демис Руссос скачать торрент
    Видео :Демис Руссос смотреть онлайн
    Cкачать фильм Видео :Демис Руссос бесплатно
    Видео :Демис Руссос скачать торрент в хорошем качестве
    Видео :Демис Руссос смотреть онлайн бесплатно в хорошем качестве


    Вы не можете начинать темы
    Вы не можете отвечать на сообщения
    Вы не можете редактировать свои сообщения
    Вы не можете удалять свои сообщения
    Вы не можете голосовать в опросах
    Вы не можете прикреплять файлы к сообщениям
    Вы можете скачивать файлы