Ссылка на приватное зеркало нашего сайта всего за 1$. Внимание количество ограничено!!!

2 сезон

iTunes

1 сезон

1

iTunes

iTunes

iTunes

1 сезон

RePack

30

ИГРА 18+

pack

ВАЖНО

!!Акция!!

Alien_RageХит недели

RePack

MK11
pack

Забери бонус

RePack

jed

!!Акция!!

Alien_Rage

RePack

fifa19

RePack

Assassins Creed: Odyssey

RePack

NEED FOR SPEED™ PAYBACK

4 сезон

9 сезон

Бесстыжие 9 сезон

Все сериалы

все сериалы на PB.wtf

RePack

FAR CRY 5
  

Тет-а-тет / Cam2Cam (Джоэль Сойзон ) [2014, ужасы, триллер, DVDRip, Любительский (двухголосый) [den904, DeadSno] pb.wtf

Тет-а-тет через торрент pb.wtf

Размер: 1.43 GB | Добавлен: 5 лет 8 мес. назад | Торрент скачан:318 раз
Скачать  

08-02-2015 17:23 Тет-а-тет Скачать торрент  


Тет-а-тет / Cam2Cam
«While you're watching them, they're watching you»

Информация:
Год выпуска:2014
Страна: США, Таиланд, Австрия
Жанр:ужасы, триллер
Продолжительность01:30:56
Перевод:Любительский (двухголосый) [den904, DeadSno]
Режиссер:Джоэль Сойзон

В ролях:


Таммин Сурсок (Allie Westbrook), Ben Wiggins (Michael), Сара Бонрепо (Marit), Джейд Тейлор (Lucy), Расселл Джеффри Бэнкс, Алесса Айхингер (Webcam Performer), Людовик Куто (Creepy nerd), Cecelia Elizabeth (Web Performer), Бретт Олсен (Web Performer), Kyri Saphiris (Voyeur), Фабиан Старр (Web Cam Performance Artist), Кевин Саметасорн (Inspector, озвучка)

Описание:
Эли приезжает в Таиланд, чтобы расследовать смерть своей сестры, погибшей у себя в комнате страшной смертью. В поисках квартиры, она знакомится с группой веселых молодых людей, которые радушно принимают девушку в свои ряды. Глава этой группы - красивая и умная лесбиянка Мерит, знакомит Эли с их бытом и с окрестными достопримечательностями, по пути объясняя правила поведения в этой стране. В процессе дружеского общения, Мерит рассказывает ей о, созданном ими, чате для общения Кам2Кам, в котором, как оказалась, ее сестра была завсегдатаем. С поимкой серийного убийцы, который, как оказалось, тоже посещал этот чат, события становятся все более запутанными и пугающими.


Тех.Данные:
Качество: DVDRip
Формат:AVI
Видео кодек: XviD
Аудио кодек:AC3
Видео: XviD, 720x400 (16:9), 1596 kbps, 23,976 fps, 0,219 bpp
Аудио №1: AC3 / 2.0 / 48 kHz / 192 kbps / RUS
Аудио №2: AC3 / 5.1 / 48 kHz / 448 kbps / ENG

Код:

General
Complete name                            : D:\Торенты\Cam2Cam.2014.DVDRip.avi
Format                                   : AVI
Format/Info                              : Audio Video Interleave
File size                                : 1.43 GiB
Duration                                 : 1h 30mn
Overall bit rate                         : 2 250 Kbps
Writing application                      : VirtualDubMod 1.5.10.3 | www.virtualdub-fr.org || (build 2550/release)
Writing library                          : VirtualDubMod build 2550/release

Video
ID                                       : 0
Format                                   : MPEG-4 Visual
Format profile                           : Simple@L5
Format settings, BVOP                    : No
Format settings, QPel                    : No
Format settings, GMC                     : No warppoints
Format settings, Matrix                  : Default (H.263)
Codec ID                                 : XVID
Codec ID/Hint                            : XviD
Duration                                 : 1h 30mn
Bit rate                                 : 1596 Kbps
Width                                    : 720 pixels
Height                                   : 400 pixels
Display aspect ratio                     : 16:9
Frame rate                               : 23.976 fps
Color space                              : YUV
Chroma subsampling                       : 4:2:0
Bit depth                                : 8 bits
Scan type                                : Progressive
Compression mode                         : Lossy
Bits/(Pixel*Frame)                       : 0.219
Stream size                              : 982 MiB (67%)
Writing library                          : Lavc56.13.100

Audio #1
ID                                       : 1
Format                                   : AC-3
Format/Info                              : Audio Coding 3
Mode extension                           : CM (complete main)
Codec ID                                 : 2000
Duration                                 : 1h 30mn
Bit rate mode                            : Constant
Bit rate                                 : 192 Kbps
Channel(s)                               : 2 channels
Channel positions                        : Front: L R
Sampling rate                            : 48.0 KHz
Bit depth                                : 16 bits
Compression mode                         : Lossy
Stream size                              : 125 MiB (9%)
Alignment                                : Split accross interleaves

Audio #2
ID                                       : 2
Format                                   : AC-3
Format/Info                              : Audio Coding 3
Mode extension                           : CM (complete main)
Codec ID                                 : 2000
Duration                                 : 1h 30mn
Bit rate mode                            : Constant
Bit rate                                 : 448 Kbps
Channel(s)                               : 6 channels
Channel positions                        : Front: L C R, Side: L R, LFE
Sampling rate                            : 48.0 KHz
Bit depth                                : 16 bits
Compression mode                         : Lossy
Stream size                              : 291 MiB (20%)
Alignment                                : Split accross interleaves

Скриншоты:


© Оформление by Ворон
pb.wtf



Скачать Тет-а-тет через торрент http://pic.kartinco.top/images/6/ordi9.jpg Скачать фильм Тет-а-тет через торрент бесплантно в хорошем качестве Год выпуска:2014 Страна: США, Таиланд, Австрия Жанр:ужасы, триллер Продолжительность01:30:56 Перевод: (двухголосый) [den904, ... 8.6 10 9
Торрент: Зарегистрирован [2015-02-08 17:23] · скачан: 318 раз
Статус: T временная
Размер: 1.43 GB
Как cкачать? Как скачать Тет-а-тет через торрент | qTorrent

28-11-2019 20:33  

Отключить всю рекламу на сайте

08-02-2015 18:40 Тет-а-тет Скачать торрент  

как фильмpb.wtf



08-02-2015 19:02 Тет-а-тет Скачать торрент  

Кубыч, ))) скачали 9 раз, фильм выложили 1 ч. 35 мин. назад. еще не успели посмотреть, но думаю.... если только с пивом)))pb.wtf



    Дорогой пользователь! Огромная просьба, поблагодарите релизера, оцените раздачу и оставьте свои комментарий, если Вы скачали Тет-а-тет через торрент бесплатно! Внесите свою лепту в развитие PiratBit!
    Комментировать посты могут только пользователи прошедшие не сложную регистрацию
    Показать сообщения:    

    Тет-а-тет через торрент
    Скачать бесплатно Тет-а-тет
    Тет-а-тет скачать торрент
    Тет-а-тет смотреть онлайн
    Cкачать фильм Тет-а-тет бесплатно
    Тет-а-тет скачать торрент в хорошем качестве
    Тет-а-тет смотреть онлайн бесплатно в хорошем качестве


    Вы не можете начинать темы
    Вы не можете отвечать на сообщения
    Вы не можете редактировать свои сообщения
    Вы не можете удалять свои сообщения
    Вы не можете голосовать в опросах
    Вы не можете прикреплять файлы к сообщениям
    Вы можете скачивать файлы