Ссылка на приватное зеркало нашего сайта всего за 1$. Внимание количество ограничено!!!

2 сезон

iTunes

1 сезон

1

iTunes

iTunes

iTunes

1 сезон

RePack

30

ИГРА 18+

pack

ВАЖНО

!!Акция!!

Alien_RageХит недели

RePack

MK11
pack

Забери бонус

RePack

jed

!!Акция!!

Alien_Rage

RePack

fifa19

RePack

Assassins Creed: Odyssey

RePack

NEED FOR SPEED™ PAYBACK

4 сезон

9 сезон

Бесстыжие 9 сезон

Все сериалы

все сериалы на PB.wtf

RePack

FAR CRY 5
  

Выстрел / Сезон: 1 / Серии 1-8 из 12 (Сергей Коротаев) [2015, Россия, драма, SATRip) pb.wtf

Выстрел через торрент pb.wtf

Размер: 5.63 GB | Добавлен: 5 лет 8 мес. назад | Торрент скачан:149 раз
Скачать  

09-02-2015 13:19 Выстрел Скачать торрент  

Выстрел


  • Год выпуска: 2015
  • Страна: Россия
  • Жанр: драма
  • Продолжительность: 00:50:06 (Серия)
  • Перевод: Не требуется

  • Режиссер: Сергей Коротаев
  • В ролях:

    Юрий Борисов (Паша Крутов), Данила Шевченко (Сергей Михеев), Сергей Соцердотский (Борис Шац), Гела Месхи (Максим Белоусов), Мария Белоненко (Маша), Лилия Мэй (французская журналистка), Владимир Меньшов, Сергей Угрюмов, Игорь Новоселов, Лидия Милюзина (Юлия Лазинская), Юрий Шлыков, Алексей Ошурков

  • Описание:
    История молодого спортсмена, который упорным трудом пробивает себе дорогу из российской глубинки в состав сборной России по биатлону, и становится одним из ее лидеров на Олимпийских играх в Сочи-2014.
  • Рейтинг:



  • Качество: SATRip
  • Формат: :AVI
  • Видео кодек: XviD
  • Аудио кодек: AC3
  • Видео: 704x448 (1.571), 1799 kbps, 25 fps, 0,228 bpp
  • Аудио: 2.0 / 48 kHz / 192 kbps / 16 bit
  • Релиз от: GEKADOL

    Код:

    Внимание! Раздача ведётся путём добавления новых серий; при каждом добавлении создаётся новый торрент. Чтобы начать докачку новой серии, пользователям необходимо сделать следующее:
    (1) остановить скачивание,
    (2) удалить старый торрент у себя из клиента (старые серии удалять не надо),
    (3) скачать новый торрент и запустить его у себя в клиенте вместо старого, при этом указать клиенту путь в старую папку куда и должно происходить скачивание новых серий.
    Ваш клиент при этом должен произвести хеширование (проверку) старой папки (если не производит сам - помогите ему сделать это), и будет докачивать только те серии которых у вас ещё нет. Старые серии при этом не удаляются, а продолжают раздаваться!
    Eсли вы уже удалили старые серии, то предотвратить повторную закачку старых серий можно, отжав галочку в соответствующих местах при запуске нового торрента. По возможности, желательно не удалять старые серии как можно дольше чтобы релизёр не столько продолжал раздавать старые серии, а смог сконцентрироваться на новых.


    Код:

    General
    Complete name                            : I:\Vystrel.SATRip\Vystrel.02.SATRip.avi
    Format                                   : AVI
    Format/Info                              : Audio Video Interleave
    File size                                : 717 MiB
    Duration                                 : 50mn 6s
    Overall bit rate                         : 2 002 Kbps
    Writing application                      : VirtualDubMod 1.5.10.3 | www.virtualdub-fr.org || (build 2550/release)
    Writing library                          : VirtualDubMod build 2550/release

    Video
    ID                                       : 0
    Format                                   : MPEG-4 Visual
    Format profile                           : Advanced Simple@L5
    Format settings, BVOP                    : 2
    Format settings, QPel                    : No
    Format settings, GMC                     : No warppoints
    Format settings, Matrix                  : Default (H.263)
    Codec ID                                 : XVID
    Codec ID/Hint                            : XviD
    Duration                                 : 50mn 6s
    Bit rate                                 : 1 800 Kbps
    Width                                    : 704 pixels
    Height                                   : 448 pixels
    Display aspect ratio                     : 1.571
    Frame rate                               : 25.000 fps
    Color space                              : YUV
    Chroma subsampling                       : 4:2:0
    Bit depth                                : 8 bits
    Scan type                                : Progressive
    Compression mode                         : Lossy
    Bits/(Pixel*Frame)                       : 0.228
    Stream size                              : 645 MiB (90%)
    Writing library                          : XviD 1.2.1 (UTC 2008-12-04)

    Audio
    ID                                       : 1
    Format                                   : AC-3
    Format/Info                              : Audio Coding 3
    Mode extension                           : CM (complete main)
    Codec ID                                 : 2000
    Duration                                 : 50mn 6s
    Bit rate mode                            : Constant
    Bit rate                                 : 192 Kbps
    Channel(s)                               : 2 channels
    Channel positions                        : Front: L R
    Sampling rate                            : 48.0 KHz
    Bit depth                                : 16 bits
    Compression mode                         : Lossy
    Stream size                              : 68.8 MiB (10%)
    Alignment                                : Split accross interleaves
    Interleave, duration                     : 40 ms (1.00 video frame)
    Interleave, preload duration             : 500 ms


    Скриншоты:
    скриншот   скриншот   скриншот   скриншот   скриншот  
    скриншот  

    Раздача ведётся путём добавления новых серий. Добавлена 8 серия (12.02.2015).Просьба перекачать торрент файл.

    pb.wtf



  • Скачать Выстрел через торрент http://i67.fastpic.ru/big/2015/0209/d9/5b366e43011f691fde76ad64be5b12d9.jpg Скачать фильм Выстрел через торрент бесплантно в хорошем качестве Описание: История молодого спортсмена, который упорным трудом пробивает себе дорогу из российской глубинки в состав сборной России по ... 10 10 9
    Info! Золотая раздача, скачанное не засчитывается.
    Торрент: Зарегистрирован [2015-02-12 15:55] · скачан: 149 раз
    Статус: √ проверено
    Размер: 5.63 GB
    Как cкачать? Как скачать Выстрел через торрент | qTorrent

    28-11-2019 20:33  

    Отключить всю рекламу на сайте

    13-02-2015 06:41 Выстрел Скачать торрент  

    А в реальности про какого спортсмена сериал?pb.wtf



    13-02-2015 12:19 Выстрел Скачать торрент  

    Неплохо, можно смотреть! pb.wtf



      Дорогой пользователь! Огромная просьба, поблагодарите релизера, оцените раздачу и оставьте свои комментарий, если Вы скачали Выстрел через торрент бесплатно! Внесите свою лепту в развитие PiratBit!
      Комментировать посты могут только пользователи прошедшие не сложную регистрацию
      Показать сообщения:    

      Выстрел через торрент
      Скачать бесплатно Выстрел
      Выстрел скачать торрент
      Выстрел смотреть онлайн
      Cкачать фильм Выстрел бесплатно
      Выстрел скачать торрент в хорошем качестве
      Выстрел смотреть онлайн бесплатно в хорошем качестве


      Вы не можете начинать темы
      Вы не можете отвечать на сообщения
      Вы не можете редактировать свои сообщения
      Вы не можете удалять свои сообщения
      Вы не можете голосовать в опросах
      Вы не можете прикреплять файлы к сообщениям
      Вы можете скачивать файлы