2 сезон

iTunes

MVO

1

2 сезон

iTunes

iTunes

1 сезон

RePack

30

Новинка

ВАЖНО

ИГРА 18+

pack

RePack

MK11
pack

Легкие деньги

RePack

jed

RePack

fifa19

RePack

RDR2

RePack

NEED FOR SPEED™ PAYBACK

4 сезон

9 сезон

Бесстыжие 9 сезон

Все сериалы

все сериалы на PB.wtf

RePack

FAR CRY 5

Anonymous, доброй ночи, мы не успеваем собрать деньги на оплату серверов за декабрь и январь, помогите нам пожалуйста в это трудное время. В качестве благодарности мы отключим Вам всю рекламу на сайте (укажите свой ник в строку Ваше имя)!

×
  
Magnet ссылка

Новая полицейская история / Xin jing cha gu shi / New police story (Бенни Чан) [2004, боевик, триллер, драма, криминал, BDRip 720p / 60 fps] от NNNB pb.wtf

Новая полицейская история через торрент pb.wtf

Размер: 6.73 GB | Добавлен: 5 лет 11 мес. назад | Торрент скачан:161 раз
Скачать  

09-02-2015 14:48 Новая полицейская история Скачать торрент  

Информация о фильме
Русское название: Новая полицейская история
Оригинальное название: Xin jing cha gu shi / New police story
Год выхода: 2004
Жанр: боевик, триллер, драма, криминал
Режиссер: Бенни Чан
Выпущено: Гонконг, Китай
Продолжительность: 02:03:17
Перевод: Дублированный
В ролях: Джеки Чан, Николас Це, Винни Люн, Эрик Квок, Дип ЭнДжи, Кеннет Лоу, Тони Хо, Тимми Хунг




Сюжет фильма
Команда инспектора Винга почти полностью уничтожена в неравной схватке с гангстерами. Чудом оставшийся в живых полицейский винит себя в смерти друзей и начинает искать забвение в алкоголе.
Новый напарник инспектора, молодой офицер помогает Вингу вернуться к жизни. Вместе они бросают вызов мафии Гонконга и вступают на путь мести, чтобы наказать убийц своих товарищей.
Файл
Качество: BDRip 720p (исходник Blu-ray Disc Remux)
Видео: 1280x550, 6566 Кбит/сек, 59.940 кадр/сек, AVC, x264, High@L4.1, 2.35:1, 0.156 Бит/[Пиксели*Кадры]
Аудио 1: AC-3, 448 Кбит/сек, 6 канала(ов), 48,0 КГц - Дублированный / Русский
Аудио 2: AC-3, 640 Кбит/сек, 6 канала(ов), 48,0 КГц - Оригинал / Английский
Субтитры: Русские | Полные, Английские | Полные
Форсированные субтитры: Нет
Чаптеры (Главы): Есть[/ul]



Автор Рипа: Сообщество:
Format : Matroska
Format version : Version 2
File size : 6.73 GiB
Duration : 2h 3mn
Overall bit rate : 7 809 Kbps
Movie name : Новая полицейская история.(2004).BDRip.720p.[envy].[60fps]
Encoded date : UTC 2015-02-07 06:39:26
Writing application : mkvmerge v5.8.0 ('No Sleep / Pillow') built on Sep 2 2012 15:37:04
Writing library : libebml v1.2.3 + libmatroska v1.3.0

Video
ID : 1
Format : AVC
Format/Info : Advanced Video Codec
Format profile : High@L4.1
Format settings, CABAC : Yes
Format settings, ReFrames : 9 frames
Codec ID : V_MPEG4/ISO/AVC
Duration : 2h 3mn
Bit rate : 6 566 Kbps
Width : 1 280 pixels
Height : 550 pixels
Display aspect ratio : 2.35:1
Frame rate mode : Constant
Frame rate : 59.880 fps
Original frame rate : 59.940 fps
Color space : YUV
Chroma subsampling : 4:2:0
Bit depth : 8 bits
Scan type : Progressive
Bits/(Pixel*Frame) : 0.156
Stream size : 5.65 GiB (84%)
Title : Новая полицейская история.(2004).BDRip.720p.[envy].[60fps]
Writing library : x264 core 130 r2273 b3065e6
Encoding settings : cabac=1 / ref=9 / deblock=1:0:0 / analyse=0x3:0x133 / me=umh / subme=11 / psy=1 / psy_rd=1.00:0.00 / mixed_ref=1 / me_range=32 / chroma_me=1 / trellis=2 / 8x8dct=1 / cqm=0 / deadzone=21,11 / fast_pskip=0 / chroma_qp_offset=-2 / threads=12 / lookahead_threads=1 / sliced_threads=0 / nr=0 / decimate=1 / interlaced=0 / bluray_compat=0 / constrained_intra=0 / bframes=6 / b_pyramid=2 / b_adapt=2 / b_bias=0 / direct=3 / weightb=1 / open_gop=0 / weightp=2 / keyint=250 / keyint_min=25 / scenecut=40 / intra_refresh=0 / rc=crf / mbtree=0 / crf=18.0 / qcomp=0.60 / qpmin=0 / qpmax=69 / qpstep=4 / ip_ratio=1.40 / pb_ratio=1.30 / aq=2:1.00
Language : Chinese
Default : Yes
Forced : No

Audio #1
ID : 2
Format : AC-3
Format/Info : Audio Coding 3
Mode extension : CM (complete main)
Format settings, Endianness : Big
Codec ID : A_AC3
Duration : 2h 3mn
Bit rate mode : Constant
Bit rate : 448 Kbps
Channel(s) : 6 channels
Channel positions : Front: L C R, Side: L R, LFE
Sampling rate : 48.0 KHz
Bit depth : 16 bits
Compression mode : Lossy
Stream size : 395 MiB (6%)
Title : Dub
Language : Russian
Default : Yes
Forced : No

Audio #2
ID : 3
Format : AC-3
Format/Info : Audio Coding 3
Mode extension : CM (complete main)
Format settings, Endianness : Big
Codec ID : A_AC3
Duration : 2h 3mn
Bit rate mode : Constant
Bit rate : 640 Kbps
Channel(s) : 6 channels
Channel positions : Front: L C R, Side: L R, LFE
Sampling rate : 48.0 KHz
Bit depth : 16 bits
Compression mode : Lossy
Stream size : 564 MiB (8%)
Title : Eng
Language : English
Default : No
Forced : No

Text #1
ID : 4
Format : UTF-8
Codec ID : S_TEXT/UTF8
Codec ID/Info : UTF-8 Plain Text
Title : full
Language : Russian
Default : No
Forced : No

Text #2
ID : 5
Format : UTF-8
Codec ID : S_TEXT/UTF8
Codec ID/Info : UTF-8 Plain Text
Title : full
Language : English
Default : No
Forced : No

Menu
00:00:00.000 : :Chapter 01
00:05:00.008 : :Chapter 02
00:10:00.016 : :Chapter 03
00:15:00.024 : :Chapter 04
00:20:00.032 : :Chapter 05
00:25:00.040 : :Chapter 06
00:30:00.006 : :Chapter 07
00:35:00.014 : :Chapter 08
00:40:00.022 : :Chapter 09
00:45:00.030 : :Chapter 10
00:50:00.038 : :Chapter 11
00:55:00.005 : :Chapter 12
01:00:00.013 : :Chapter 13
01:05:00.021 : :Chapter 14
01:10:00.029 : :Chapter 15
01:15:00.037 : :Chapter 16
01:20:00.003 : :Chapter 17
01:25:00.011 : :Chapter 18
01:30:00.019 : :Chapter 19
01:35:00.027 : :Chapter 20
01:40:00.035 : :Chapter 21
01:45:00.002 : :Chapter 22
01:50:00.010 : :Chapter 23
01:55:00.018 : :Chapter 24
02:00:00.026 : :Chapter 25

pb.wtf



Скачать Новая полицейская история через торрент http://www.firepic.org/images/2015-02/09/50g4rsx48m3v.png Скачать фильм Новая полицейская история через торрент бесплантно в хорошем качестве В ролях: Джеки Чан, Николас Це, Винни Люн, Эрик Квок, Дип ЭнДжи, Кеннет Лоу, Тони Хо, Тимми ХунгСюжет фильмаКоманда инспектора Винга почти ... 10 10 11
Торрент: Зарегистрирован [2015-02-09 14:48] · скачан: 161 раз
Статус: √ проверено
Размер: 6.73 GB
Как cкачать? Как скачать Новая полицейская история через торрент | UTorrent

28-11-2019 20:33  

Отключить всю рекламу на сайте

09-02-2015 15:33 Новая полицейская история Скачать торрент  

Спасибо...pb.wtf



09-02-2015 22:55 Новая полицейская история Скачать торрент  

Мягко говоря игра актёров не какая . Смотрю только из за Джеки Чана . Сюжет попахивает фекалиями.
К просмотру не рекомендую , не трате своё время. Самой шлаковый фильм с Джеки Чаном.pb.wtf



    Дорогой пользователь! Огромная просьба, поблагодарите релизера, оцените раздачу и оставьте свои комментарий, если Вы скачали Новая полицейская история через торрент бесплатно! Внесите свою лепту в развитие PiratBit!
    Комментировать посты могут только пользователи прошедшие не сложную регистрацию
    Показать сообщения:    

    Новая полицейская история через торрент
    Скачать бесплатно Новая полицейская история
    Новая полицейская история скачать торрент
    Новая полицейская история смотреть онлайн
    Cкачать фильм Новая полицейская история бесплатно
    Новая полицейская история скачать торрент в хорошем качестве
    Новая полицейская история смотреть онлайн бесплатно в хорошем качестве


    Вы не можете начинать темы
    Вы не можете отвечать на сообщения
    Вы не можете редактировать свои сообщения
    Вы не можете удалять свои сообщения
    Вы не можете голосовать в опросах
    Вы не можете прикреплять файлы к сообщениям
    Вы можете скачивать файлы