2 сезон

iTunes

1 сезон

1

iTunes

iTunes

iTunes

1 сезон

RePack

30

ИГРА 18+

pack

ВАЖНО

!!Акция!!

Alien_RageХит недели

RePack

MK11
pack

Забери бонус

RePack

jed

!!Акция!!

Alien_Rage

RePack

fifa19

RePack

Assassins Creed: Odyssey

RePack

NEED FOR SPEED™ PAYBACK

4 сезон

9 сезон

Бесстыжие 9 сезон

Все сериалы

все сериалы на PB.wtf

RePack

FAR CRY 5
  

Домик на дереве / Treehouse (Майкл Г. Бартлетт ) [2014, ужасы, триллер, детектив, HDRip, Любительский (двухголосый) [den904, DeadSno] pb.wtf

Домик на дереве через торрент pb.wtf

Размер: 1.31 GB | Добавлен: 5 лет 8 мес. назад | Торрент скачан:190 раз
Скачать  

09-02-2015 18:46 Домик на дереве Скачать торрент  


Домик на дереве / Treehouse


Информация:
Год выпуска:2014
Страна: Великобритания, США
Жанр:ужасы, триллер, детектив
Продолжительность01:40:04
Перевод:Любительский (двухголосый) [den904, DeadSno]
Режиссер:Майкл Г. Бартлетт

В ролях:


Джонатан Майкл Траутмэнн (Killian), Дэна Мелани (Elizabeth), Клинт Джеймс (Killian's father), Дэниэл Фредрик (Crawford), Шеннон Кнопк (Marsha), Калеб Кокс (Tyler), Даррен Кеннеди (Officer Morgan), Чэнс Николс (Geminski), Мэллори Малибу Во (Betty, озвучка), Jake Gregory (Little Bob), Илэйн Дженкинс (Alicia), Nathan L. Henderson (Coach Reynolds)

Описание:
В небольшом городке начинают происходить похищения детей и подростков, останки обезображенных тел которых находят в лесу. Полиция вводит комендантский час, но тщетно, таинственного похитителя это не останавливает и он продолжает воплощать свои извращенные идеи в жизнь. Одной из жертв удается убежать и спрятаться в домике на дереве...


Тех.Данные:
Качество: HDRip
Формат:AVI
Видео кодек: XviD
Аудио кодек:AC3
Видео: XviD, 720x304 (2.35:1), 1674 kbps, 23,976 fps, 0,305 bpp
Аудио: AC3 / 2.0 / 48 kHz / 192 kbps / 16 bit

Код:

General
Complete name                            : D:\Торенты\ДомикНаДереве.avi
Format                                   : AVI
Format/Info                              : Audio Video Interleave
File size                                : 1.31 GiB
Duration                                 : 1h 40mn
Overall bit rate                         :  1674  Kbps
Writing application                      : VirtualDubModRus 1.5.10.2 (build 2542/release)
Writing library                          : VirtualDubMod build 2542/release

Video
ID                                       : 0
Format                                   : MPEG-4 Visual
Format profile                           : Advanced Simple@L5
Format settings, BVOP                    : 2
Format settings, QPel                    : No
Format settings, GMC                     : No warppoints
Format settings, Matrix                  : Default (H.263)
Muxing mode                              : Packed bitstream
Codec ID                                 : XVID
Codec ID/Hint                            : XviD
Duration                                 : 1h 40mn
Bit rate                                 : 1 600 Kbps
Width                                    : 720 pixels
Height                                   : 304 pixels
Display aspect ratio                     : 2.35:1
Frame rate                               : 23.976 fps
Color space                              : YUV
Chroma subsampling                       : 4:2:0
Bit depth                                : 8 bits
Scan type                                : Progressive
Compression mode                         : Lossy
Bits/(Pixel*Frame)                       : 0.305
Stream size                              : 1.12 GiB (85%)
Writing library                          : XviD 64

Audio
ID                                       : 1
Format                                   : AC-3
Format/Info                              : Audio Coding 3
Mode extension                           : CM (complete main)
Codec ID                                 : 2000
Duration                                 : 1h 40mn
Bit rate mode                            : Constant
Bit rate                                 : 192 Kbps
Channel(s)                               : 2 channels
Channel positions                        : Front: L R
Sampling rate                            : 48.0 KHz
Bit depth                                : 16 bits
Compression mode                         : Lossy
Stream size                              : 137 MiB (10%)
Alignment                                : Split accross interleaves

Скриншоты:


© Оформление by Ворон
pb.wtf



Скачать Домик на дереве через торрент http://pic.kartinco.top/images/6/ordi9.jpg Скачать фильм Домик на дереве через торрент бесплантно в хорошем качестве Год выпуска:2014 Страна: Великобритания, США Жанр:ужасы, триллер, детектив Продолжительность01:40:04 Перевод: (двухголосый) ... 7.5 10 10
Торрент: Зарегистрирован [2015-02-09 18:46] · скачан: 190 раз
Статус: T временная
Размер: 1.31 GB
Как cкачать? Как скачать Домик на дереве через торрент | qTorrent

% Раздел Тема Автор DL S | L
T Фильмы 2014 (Звук TS, Cam, VO, DVO) [ 699 MB ] Домик на дереве / Treehouse [2014 WEB-DLRip Любительский [den904 DeadSno] Ворон Скачать
1 | 0

28-11-2019 20:33  

Отключить всю рекламу на сайте

09-02-2015 19:11 Домик на дереве Скачать торрент  

печальный совсем фильм, самое лучшее - это постерpb.wtf



    Дорогой пользователь! Огромная просьба, поблагодарите релизера, оцените раздачу и оставьте свои комментарий, если Вы скачали Домик на дереве через торрент бесплатно! Внесите свою лепту в развитие PiratBit!
    Комментировать посты могут только пользователи прошедшие не сложную регистрацию
    Показать сообщения:    

    Домик на дереве через торрент
    Скачать бесплатно Домик на дереве
    Домик на дереве скачать торрент
    Домик на дереве смотреть онлайн
    Cкачать фильм Домик на дереве бесплатно
    Домик на дереве скачать торрент в хорошем качестве
    Домик на дереве смотреть онлайн бесплатно в хорошем качестве


    Вы не можете начинать темы
    Вы не можете отвечать на сообщения
    Вы не можете редактировать свои сообщения
    Вы не можете удалять свои сообщения
    Вы не можете голосовать в опросах
    Вы не можете прикреплять файлы к сообщениям
    Вы можете скачивать файлы