Присоединяйтесь к нам в Telegram!, здесь всегда актуальный адрес сайта, оперативная поддержка и многое другое!!

>

5.9

iTunes

7.4

iTunes

9.4

1 сезон

1

7.4

2 сезон

7.2

iTunes

7.3

1 сезон

13

6.1

iTunes

8.3

GOG

30

ULTIMATE

pack

9.9

Лицензия

ВАЖНО

ИГРА 18+

pack

7.3

RePack

MK11

7.7

RePack

jed

7.8

RePack

fifa19

8.5

RePack

RDR2

RePack

NEED FOR SPEED™ PAYBACK

5 сезон

9 сезон

Бесстыжие 9 сезон

Все сериалы

все сериалы на PB.wtf

RePack

FAR CRY 5

Anonymous, добрый вечер, мы катастрофически не успеваем собрать деньги на оплату серверов, помогите нам пожалуйста 5,10,15р., для нас важна любая помощь . В качестве благодарности мы отключим Вам всю рекламу на сайте (укажите свой ник в строку Ваше имя)!

×
  
Magnet ссылка

Видеомикс / Dj Tronaxian Mini Videomix - Collection 3 (Dj Tronaxian) [2014 г., Adult music clips, House, Dance Music Mixing, WEB-DLRip 720p, Оригинал] pb.wtf

Видеомикс через торрент pb.wtf

Размер: 3.84 GB | Добавлен: 6 лет 9 мес. назад | Торрент скачан:203 раза
Смотреть онлайн Видеомикс | Скачать    Ребята, помогите собрать деньги на оплату серверов!!!

10-02-2015 08:17 Видеомикс Скачать торрент  

Видеомикс / Dj Tronaxian Mini Videomix - Collection 3
Год выпуска: 2014
Страна: All World
Жанр: Adult music clips, House, Dance Music Mixing
Продолжительность: 03:04:40
Перевод: Оригинал

Режиссер: Dj Tronaxian

Описание:

Третья часть танцевальной музыки с очаровательными девушками! Есть такие минуты, когда не хочется медитировать или релаксировать, а просто есть невероятной силы желание, отпустить душу в безумный танец.... И они вам в этом помогут!

Качество: WEB-DLRip 720p
Формат: MP4
Видео кодек: AVC
Аудио кодек: AAC
Видео: AVC, 1280x720 (16:9), 25.000 fps, 2 474 Kbps (0.107 bit/pixel)
Аудио#1: AAC LC, 48.0 KHz, 2 ch, 160 Kbps, VBR
скриншот   скриншот   скриншот   скриншот   скриншот  
скриншот   скриншот   скриншот   скриншот   скриншот  

Общее
Полное имя : D:\Архив\Клипы\Dj Tronaxian Mini Videomix - Collection 3\Dj Tronaxian Mini Videomix Part 14.mp4
Формат : MPEG-4
Профиль формата : Base Media / Version 2
Идентификатор кодека : mp42
Размер файла : 669 Мбайт
Продолжительность : 35 м.
Режим общего битрейта : Переменный
Общий поток : 2637 Кбит/сек
Дата кодирования : UTC 2014-12-30 22:10:25
Дата пометки : UTC 2014-12-30 22:10:25

Видео
Идентификатор : 1
Формат : AVC
Формат/Информация : Advanced Video Codec
Профиль формата : High@L3.1
Параметр CABAC формата : Да
Параметр ReFrames формата : 4 кадра
Идентификатор кодека : avc1
Идентификатор кодека/Информация : Advanced Video Coding
Продолжительность : 35 м.
Битрейт : 2474 Кбит/сек
Ширина : 1280 пикселей
Высота : 720 пикселей
Соотношение сторон : 16:9
Режим частоты кадров : Постоянный
Частота кадров : 25,000 кадров/сек
Цветовое пространство : YUV
Субдискретизация насыщенности : 4:2:0
Битовая глубина : 8 бит
Тип развёртки : Прогрессивная
Бит/(Пиксели*Кадры) : 0.107
Размер потока : 627 Мбайт (94%)
Библиотека кодирования : x264 core 142 r11 24e4fed
Настройки программы : cabac=1 / ref=3 / deblock=1:0:0 / analyse=0x3:0x113 / me=hex / subme=7 / psy=1 / psy_rd=1.00:0.00 / mixed_ref=1 / me_range=16 / chroma_me=1 / trellis=1 / 8x8dct=1 / cqm=0 / deadzone=21,11 / fast_pskip=1 / chroma_qp_offset=-2 / threads=72 / lookahead_threads=5 / sliced_threads=0 / nr=0 / decimate=1 / interlaced=0 / bluray_compat=0 / stitchable=1 / constrained_intra=0 / bframes=3 / b_pyramid=2 / b_adapt=1 / b_bias=0 / direct=1 / weightb=1 / open_gop=0 / weightp=2 / keyint=infinite / keyint_min=25 / scenecut=40 / intra_refresh=0 / rc_lookahead=40 / rc=crf / mbtree=1 / crf=20.0 / qcomp=0.60 / qpmin=5 / qpmax=69 / qpstep=4 / vbv_maxrate=2750 / vbv_bufsize=7500 / crf_max=0.0 / nal_hrd=none / filler=0 / ip_ratio=1.40 / aq=1:1.00
Дата кодирования : UTC 2014-12-30 22:10:25
Дата пометки : UTC 2014-12-30 22:10:25

Аудио
Идентификатор : 2
Формат : AAC
Формат/Информация : Advanced Audio Codec
Профиль формата : LC
Идентификатор кодека : 40
Продолжительность : 35 м.
Вид битрейта : Переменный
Битрейт : 160 Кбит/сек
Каналы : 2 канала
Расположение каналов : Front: L R
Частота : 48,0 КГц
Метод сжатия : С потерями
Размер потока : 40,6 Мбайт (6%)
Дата кодирования : UTC 2014-12-30 22:10:25
Дата пометки : UTC 2014-12-30 22:10:25

pb.wtf



Скачать Видеомикс через торрент https://pic1.kartinco.top/images/9/71ecu.jpg Скачать, смотреть онлайн Видеомикс бесплантно в хорошем качестве Описание: Третья часть танцевальной музыки с очаровательными девушками! Есть такие минуты, когда не хочется медитировать или релаксировать, ... 9 10 10
Info! Золотая раздача, скачанное не засчитывается.
Торрент: Зарегистрирован [2015-02-10 08:17] · скачан: 203 раз
Статус: √ проверено
Размер: 3.84 GB
Как cкачать? Как скачать Видеомикс через торрент | UTorrent

28-11-2019 20:33  

Отключить всю рекламу на сайте

    Дорогой пользователь! Огромная просьба, поблагодарите релизера, оцените раздачу и оставьте свои комментарий, если Вы скачали Видеомикс через торрент бесплатно!
    Комментировать посты могут только пользователи прошедшие не сложную регистрацию
    Показать сообщения:    

    Видеомикс через торрент
    Скачать бесплатно Видеомикс
    Видеомикс скачать торрент
    Видеомикс смотреть онлайн
    Cкачать фильм Видеомикс бесплатно
    Видеомикс скачать торрент в хорошем качестве
    Видеомикс смотреть онлайн бесплатно в хорошем качестве


    Вы не можете начинать темы
    Вы не можете отвечать на сообщения
    Вы не можете редактировать свои сообщения
    Вы не можете удалять свои сообщения
    Вы не можете голосовать в опросах
    Вы не можете прикреплять файлы к сообщениям
    Вы можете скачивать файлы