Ссылка на приватное зеркало нашего сайта всего за 1$. Внимание количество ограничено!!!

2 сезон

iTunes

1 сезон

1

iTunes

iTunes

iTunes

1 сезон

RePack

30

ИГРА 18+

pack

ВАЖНО

!!Акция!!

Alien_RageХит недели

RePack

MK11
pack

Забери бонус

RePack

jed

!!Акция!!

Alien_Rage

RePack

fifa19

RePack

Assassins Creed: Odyssey

RePack

NEED FOR SPEED™ PAYBACK

4 сезон

9 сезон

Бесстыжие 9 сезон

Все сериалы

все сериалы на PB.wtf

RePack

FAR CRY 5
  

Свалка / Trash (Стивен Долдри ) [2014, триллер, драма, криминал, BDRip 720p], DUB pb.wtf

Свалка через торрент pb.wtf

Размер: 4.75 GB | Добавлен: 5 лет 8 мес. назад | Торрент скачан:308 раз
Скачать  

10-02-2015 09:17 Свалка Скачать торрент  

Свалка / Trash
«You never know what you might find»


Год выпуска: 2014
Страна: Великобритания, Бразилия
Жанр: триллер, драма, криминал, приключения
Продолжительность: 01:53:43
Перевод: Дублированный - [Лицензия]
Субтитры: русские (Full), английские (English)
Режиссер: Стивен Долдри
В ролях: Руни Мара , Мартин Шин , Вагнер Моура , Селтон Мелу , Кристиана Аманпур , Риксон Тевес , Андре Рамиру , Gabriel Weinstein , Хесвита Барбоса , Нелсон Шавьер , Мария Едуарда , Даниел Зеттел
Описание:
История о трех мальчиках, живущих в стране третьего мира. Они еле сводят концы с концами, копаясь в мусоре. Однажды они находят кожаную сумку, содержимое которой окунает их в ужасное приключение...

Качество: BDRip 720p (исходник Blu-ray)
Контейнер (Расширение): MKV
Видео кодек: AVC
Аудио кодек: AC3
Видео: 1280x544 (2.35:1), 4768 Кбит/сек, 23,976 кадр/сек, 0,286 Бит/[Пиксели*Кадры]
Аудио №1: русский / AC3 / 5.1 / 48 kHz / 448 kbps / 16 bit |Дублированный|
Аудио №2: английский / AC3 / 5.1 / 48 kHz / 640 kbps / 16 bit
Навигация по главам(Чаптеры): естьАвтор рипа: Сообщество:

Код:

Format                                   : Matroska
Format version                           : Version 2
File size                                : 4.75 GiB
Duration                                 : 1h 53mn
Overall bit rate                         : 5 975 Kbps
Movie name                               : Svalka.(2014).BDRip.720p.[denis100]
Encoded date                             : UTC 2015-02-10 08:46:39
Writing application                      : mkvmerge v5.8.0 ('No Sleep / Pillow') built on Sep  2 2012 15:37:04
Writing library                          : libebml v1.2.3 + libmatroska v1.3.0

Video
ID                                       : 1
Format                                   : AVC
Format/Info                              : Advanced Video Codec
Format profile                           : High@L4.1
Format settings, CABAC                   : Yes
Format settings, ReFrames                : 11 frames
Codec ID                                 : V_MPEG4/ISO/AVC
Duration                                 : 1h 53mn
Bit rate                                 : 4 768 Kbps
Width                                    : 1 280 pixels
Height                                   : 544 pixels
Display aspect ratio                     : 2.35:1
Frame rate                               : 23.976 fps
Color space                              : YUV
Chroma subsampling                       : 4:2:0
Bit depth                                : 8 bits
Scan type                                : Progressive
Bits/(Pixel*Frame)                       : 0.286
Stream size                              : 3.79 GiB (80%)
Title                                    : Svalka.(2014).BDRip.720p.[denis100]
Writing library                          : x264 core 144 r2525 40bb568
Encoding settings                        : cabac=1 / ref=11 / deblock=1:-3:-3 / analyse=0x3:0x133 / me=umh / subme=11 / psy=1 / psy_rd=1.00:0.10 / mixed_ref=1 / me_range=32 / chroma_me=1 / trellis=2 / 8x8dct=1 / cqm=0 / deadzone=21,11 / fast_pskip=0 / chroma_qp_offset=-3 / threads=6 / lookahead_threads=1 / sliced_threads=0 / nr=0 / decimate=1 / interlaced=0 / bluray_compat=0 / constrained_intra=0 / bframes=12 / b_pyramid=2 / b_adapt=2 / b_bias=0 / direct=3 / weightb=1 / open_gop=0 / weightp=2 / keyint=240 / keyint_min=23 / scenecut=40 / intra_refresh=0 / rc=crf / mbtree=0 / crf=17.0 / qcomp=0.60 / qpmin=0 / qpmax=69 / qpstep=4 / ip_ratio=1.40 / pb_ratio=1.30 / aq=1:0.90
Language                                 : English
Default                                  : Yes
Forced                                   : No

Audio #1
ID                                       : 2
Format                                   : AC-3
Format/Info                              : Audio Coding 3
Mode extension                           : CM (complete main)
Codec ID                                 : A_AC3
Duration                                 : 1h 53mn
Bit rate mode                            : Constant
Bit rate                                 : 448 Kbps
Channel(s)                               : 6 channels
Channel positions                        : Front: L C R, Side: L R, LFE
Sampling rate                            : 48.0 KHz
Bit depth                                : 16 bits
Compression mode                         : Lossy
Stream size                              : 364 MiB (7%)
Title                                    : Дублированный
Language                                 : Russian
Default                                  : Yes
Forced                                   : No

Audio #2
ID                                       : 3
Format                                   : AC-3
Format/Info                              : Audio Coding 3
Mode extension                           : CM (complete main)
Codec ID                                 : A_AC3
Duration                                 : 1h 53mn
Bit rate mode                            : Constant
Bit rate                                 : 640 Kbps
Channel(s)                               : 6 channels
Channel positions                        : Front: L C R, Side: L R, LFE
Sampling rate                            : 48.0 KHz
Bit depth                                : 16 bits
Compression mode                         : Lossy
Stream size                              : 521 MiB (11%)
Title                                    : English
Language                                 : English
Default                                  : No
Forced                                   : No

Text #1
ID                                       : 4
Format                                   : UTF-8
Codec ID                                 : S_TEXT/UTF8
Codec ID/Info                            : UTF-8 Plain Text
Title                                    : Full
Language                                 : Russian
Default                                  : No
Forced                                   : No

Text #2
ID                                       : 5
Format                                   : UTF-8
Codec ID                                 : S_TEXT/UTF8
Codec ID/Info                            : UTF-8 Plain Text
Title                                    : English
Language                                 : English
Default                                  : No
Forced                                   : No

Menu
00:00:00.000                             : en:00:00:00.000
00:05:41.633                             : en:00:05:41.633
00:11:27.312                             : en:00:11:27.312
00:17:52.071                             : en:00:17:52.071
00:23:32.953                             : en:00:23:32.953
00:31:00.067                             : en:00:31:00.067
00:38:09.787                             : en:00:38:09.787
00:43:48.251                             : en:00:43:48.251
00:53:26.829                             : en:00:53:26.829
01:01:26.975                             : en:01:01:26.975
01:08:38.990                             : en:01:08:38.990
01:15:59.597                             : en:01:15:59.597
01:23:51.193                             : en:01:23:51.193
01:26:58.380                             : en:01:26:58.380
01:29:23.358                             : en:01:29:23.358
01:33:26.726                             : en:01:33:26.726
01:37:48.905                             : en:01:37:48.905
01:40:39.408                             : en:01:40:39.408
01:44:04.113                             : en:01:44:04.113
01:49:13.964                             : en:01:49:13.964

x264 [info]: frame I:1410 Avg QP:14.98 size:126433
x264 [info]: frame P:36254 Avg QP:16.27 size: 48760
x264 [info]: frame B:125944 Avg QP:18.61 size: 17632
pb.wtf



Скачать Свалка через торрент http://i60.fastpic.ru/big/2015/0210/8d/af7cd97abde1a5f8c25ac65d407d258d.png Скачать фильм Свалка через торрент бесплантно в хорошем качестве Описание:История о трех мальчиках, живущих в стране третьего мира. Они еле сводят концы с концами, копаясь в мусоре. Однажды они находят ... 9 10 9
Торрент: Зарегистрирован [2015-02-10 09:17] · скачан: 308 раз
Статус: √ проверено
Размер: 4.75 GB
Как cкачать? Как скачать Свалка через торрент | qTorrent

% Раздел Тема Автор DL S | L
Фильмы [HD 720p, 1080p] (Хороший звук DUB, MVO) [ 7.38 GB ] Свалка / Trash [2014 Бразилия BDRip 720p] DUB _KaisiK_ Скачать
1 | 0
Фильмы 2014 [DVDrip, WEB-DLRip, HDrip] [ 2.18 GB ] Свалка / Trash [2014 BDRip ] DUB / Ворон Скачать
1 | 0

28-11-2019 20:33  

Отключить всю рекламу на сайте

    Дорогой пользователь! Огромная просьба, поблагодарите релизера, оцените раздачу и оставьте свои комментарий, если Вы скачали Свалка через торрент бесплатно! Внесите свою лепту в развитие PiratBit!
    Комментировать посты могут только пользователи прошедшие не сложную регистрацию
    Показать сообщения:    

    Свалка через торрент
    Скачать бесплатно Свалка
    Свалка скачать торрент
    Свалка смотреть онлайн
    Cкачать фильм Свалка бесплатно
    Свалка скачать торрент в хорошем качестве
    Свалка смотреть онлайн бесплатно в хорошем качестве


    Вы не можете начинать темы
    Вы не можете отвечать на сообщения
    Вы не можете редактировать свои сообщения
    Вы не можете удалять свои сообщения
    Вы не можете голосовать в опросах
    Вы не можете прикреплять файлы к сообщениям
    Вы можете скачивать файлы