Ссылка на приватное зеркало нашего сайта всего за 1$. Внимание количество ограничено!!!

2 сезон

iTunes

1 сезон

1

iTunes

iTunes

iTunes

1 сезон

RePack

30

ИГРА 18+

pack

ВАЖНО

!!Акция!!

Alien_RageХит недели

RePack

MK11
pack

Забери бонус

RePack

jed

!!Акция!!

Alien_Rage

RePack

fifa19

RePack

Assassins Creed: Odyssey

RePack

NEED FOR SPEED™ PAYBACK

4 сезон

9 сезон

Бесстыжие 9 сезон

Все сериалы

все сериалы на PB.wtf

RePack

FAR CRY 5
  

Боже, помоги девушке / God Help the Girl (Стюарт Мердок ) [2014, мюзикл, драма, мелодрама, HDRip, Любительский (одноголосый) [Lord32x] pb.wtf

Боже, помоги девушке через торрент pb.wtf

Размер: 1.47 GB | Добавлен: 5 лет 8 мес. назад | Торрент скачан:59 раз
Скачать  

10-02-2015 18:00 Боже, помоги девушке Скачать торрент  


Боже, помоги девушке / God Help the Girl


Информация:
Год выпуска:2014
Страна: Великобритания
Жанр:мюзикл, драма, мелодрама
Продолжительность01:51:30
Перевод:Любительский (одноголосый) [Lord32x]
Субтитры: Русские (Отдельно)
Режиссер:Стюарт Мердок

В ролях:


Эмили Браунинг (Eve), Олли Александр (James), Ханна Мюррэй (Cassie), Пьер Буланжер (Anton), Кора Биссет (Miss Browning), Sarah Swire (Ballerina), Mark Radcliffe (Findlay), Stuart Maconie (Donovan), Энн Скотт-Джонс (Hairdresser), Джози Лонг (Maxine), Полин Кинг (Nurse), Kath Howden (Ward Sister)

Описание:
Ева - девушка, проходящая курс лечения собственных эмоциональных проблем. Но в больнице она находит способ помочь себе - Ева начинает писать песни.

  • Мировая премьера:18 января 2014

    Тех.Данные:
    Качество: HDRip
    Формат:AVI
    Видео кодек: XviD
    Аудио кодек:AC3
    Видео: XviD, 720x384 (1.875), 1487 kbps, 24 fps, 0,213 bpp
    Аудио: AC3 / 5.1 / 48 kHz / 384 kbps / 16 bit

    Код:

    General
    Complete name                            : D:\Торенты\God.Help.The.Girl.2014.HDRip.1500MB\God.Help.The.Girl.2014.HDRip.1500MB.avi
    Format                                   : AVI
    Format/Info                              : Audio Video Interleave
    File size                                : 1.47 GiB
    Duration                                 : 1h 51mn
    Overall bit rate                         : 1 881 Kbps
    Writing application                      : VirtualDubMod 1.5.10.3 | www.virtualdub-fr.org || (build 2550/release)
    Writing library                          : VirtualDubMod build 2550/release

    Video
    ID                                       : 0
    Format                                   : MPEG-4 Visual
    Format profile                           : Advanced Simple@L5
    Format settings, BVOP                    : 1
    Format settings, QPel                    : No
    Format settings, GMC                     : No warppoints
    Format settings, Matrix                  : Default (H.263)
    Codec ID                                 : XVID
    Codec ID/Hint                            : XviD
    Duration                                 : 1h 51mn
    Bit rate                                 :1487 Kbps
    Width                                    : 720 pixels
    Height                                   : 384 pixels
    Display aspect ratio                     : 1.875
    Frame rate                               : 24.000 fps
    Color space                              : YUV
    Chroma subsampling                       : 4:2:0
    Bit depth                                : 8 bits
    Scan type                                : Progressive
    Compression mode                         : Lossy
    Bits/(Pixel*Frame)                       : 0.213
    Stream size                              : 1.10 GiB (75%)
    Writing library                          : XviD 1.2.1 (UTC 2008-12-04)

    Audio
    ID                                       : 1
    Format                                   : AC-3
    Format/Info                              : Audio Coding 3
    Mode extension                           : CM (complete main)
    Codec ID                                 : 2000
    Duration                                 : 1h 51mn
    Bit rate mode                            : Constant
    Bit rate                                 : 384 Kbps
    Channel(s)                               : 6 channels
    Channel positions                        : Front: L C R, Side: L R, LFE
    Sampling rate                            : 48.0 KHz
    Bit depth                                : 16 bits
    Compression mode                         : Lossy
    Stream size                              : 306 MiB (20%)
    Alignment                                : Split accross interleaves

    Скриншоты:


    © Оформление by Ворон
    pb.wtf



  • Скачать Боже, помоги девушке через торрент http://pic.kartinco.top/images/6/ordi9.jpg Скачать фильм Боже, помоги девушке через торрент бесплантно в хорошем качестве Год выпуска:2014✦ Страна: Великобритания✦ Жанр:мюзикл, драма, мелодрама ✦ Продолжительность01:51:30✦ Перевод: ... 10 10 4
    Торрент: Зарегистрирован [2015-02-10 18:00] · скачан: 59 раз
    Статус: T временная
    Размер: 1.47 GB
    Как cкачать? Как скачать Боже, помоги девушке через торрент | qTorrent

    % Раздел Тема Автор DL S | L
    Фильмы без перевода [ 31.21 GB ] Боже помоги девушке / God Help the Girl [2014 мюзикл BluRay REMUX 1080p] [ENG] killermax2013 Скачать
    1 | 0

    28-11-2019 20:33  

    Отключить всю рекламу на сайте

      Дорогой пользователь! Огромная просьба, поблагодарите релизера, оцените раздачу и оставьте свои комментарий, если Вы скачали Боже, помоги девушке через торрент бесплатно! Внесите свою лепту в развитие PiratBit!
      Комментировать посты могут только пользователи прошедшие не сложную регистрацию
      Показать сообщения:    

      Боже, помоги девушке через торрент
      Скачать бесплатно Боже, помоги девушке
      Боже, помоги девушке скачать торрент
      Боже, помоги девушке смотреть онлайн
      Cкачать фильм Боже, помоги девушке бесплатно
      Боже, помоги девушке скачать торрент в хорошем качестве
      Боже, помоги девушке смотреть онлайн бесплатно в хорошем качестве


      Вы не можете начинать темы
      Вы не можете отвечать на сообщения
      Вы не можете редактировать свои сообщения
      Вы не можете удалять свои сообщения
      Вы не можете голосовать в опросах
      Вы не можете прикреплять файлы к сообщениям
      Вы можете скачивать файлы