Ссылка на приватное зеркало нашего сайта всего за 1$. Внимание количество ограничено!!!

2 сезон

iTunes

1 сезон

1

iTunes

iTunes

iTunes

1 сезон

RePack

30

ИГРА 18+

pack

ВАЖНО

!!Акция!!

Alien_RageХит недели

RePack

MK11
pack

Забери бонус

RePack

jed

!!Акция!!

Alien_Rage

RePack

fifa19

RePack

Assassins Creed: Odyssey

RePack

NEED FOR SPEED™ PAYBACK

4 сезон

9 сезон

Бесстыжие 9 сезон

Все сериалы

все сериалы на PB.wtf

RePack

FAR CRY 5
  

Зодиак: Предвестия апокалипсиса / Zodiac: Signs of the Apocalypse (В.Д. Хоган ) [2014, фантастика, BDRip 720p, Профессиональный (многоголосый) pb.wtf

Зодиак: Предвестия апокалипсиса через торрент pb.wtf

Размер: 3.4 GB | Добавлен: 5 лет 8 мес. назад | Торрент скачан:253 раза
Скачать  

10-02-2015 19:17 Зодиак: Предвестия апокалипсиса Скачать торрент  


Зодиак: Предвестия апокалипсиса / Zodiac: Signs of the Apocalypse


ИНФОРМАЦИЯ:
Год выпуска:2014
Страна: Канада
Жанр:фантастика
Продолжительность01:29:47
Перевод:Профессиональный (многоголосый)
Режиссер:В.Д. Хоган

В Ролях:


Кристофер Ллойд (Harry Setag), Джоэль Гретш (Neil Martin), Рейли Долмэн (Colin Martin), Андреа Брукс (Sophie), Эмили Холмс (Kathryn Keen), Аарон Дуглас (Agent Woodward), Бен Коттон (Marty), Дуглас Чэпман (Agent Tyler), Расселл Робертс (Dr. Bowles), Jessica Storm Smith (Jennifer), Рафаэль Пеллерин (Joel)

ОПИСАНИЕ:
Хранитель музея получает астрологическую скрижаль из слоновой кости 2000-летней давности, не зная о том, что она способна уничтожить человечество.


ТЕХ.ДАННЫЕ:
Качество: BDRip 720p
Формат:MKV
Видео кодек: AVC
Аудио кодек:AC3, DTS
Видео: AVC, 1280x720 (16:9), 4454 kbps, 23,976 fps, 0,202 bpp
Аудио №1: русский / AC3 / 2.0 / 48 kHz / 192 kbps / 16 bit ||
Аудио №2: английский / DTS / 5.1 / 48 kHz / 755 kbps / 24 bit
Навигация по главам: есть

Код:

General
Unique ID                                : 203279232503216601957830027257054516960 (0x98EE27F5D7880AC58DDAA290991456E0)
Complete name                            : D:\Торенты\Zodiak.P.a.2014.P.BDRip.720p.mkv
Format                                   : Matroska
Format version                           : Version 2
File size                                : 3.40 GiB
Duration                                 : 1h 29mn
Overall bit rate                         : 5 413 Kbps
Encoded date                             : UTC 2015-02-10 16:58:59
Writing application                      : mkvmerge v4.0.0 ('The Stars were mine') сборка от Jun  6 2010 16:18:42
Writing library                          : libebml v1.0.0 + libmatroska v1.0.0

Video
ID                                       : 1
Format                                   : AVC
Format/Info                              : Advanced Video Codec
Format profile                           : High@L4.1
Format settings, CABAC                   : Yes
Format settings, ReFrames                : 5 frames
Codec ID                                 : V_MPEG4/ISO/AVC
Duration                                 : 1h 29mn
Bit rate                                 : 4 454 Kbps
Width                                    : 1 280 pixels
Height                                   : 720 pixels
Display aspect ratio                     : 16:9
Frame rate                               : 23.976 fps
Color space                              : YUV
Chroma subsampling                       : 4:2:0
Bit depth                                : 8 bits
Scan type                                : Progressive
Bits/(Pixel*Frame)                       : 0.202
Stream size                              : 2.73 GiB (81%)
Writing library                          : x264 core 144 r2525 40bb568
Encoding settings                        : cabac=1 / ref=5 / deblock=1:0:0 / analyse=0x3:0x113 / me=umh / subme=8 / psy=1 / psy_rd=1.00:0.00 / mixed_ref=1 / me_range=16 / chroma_me=1 / trellis=1 / 8x8dct=1 / cqm=0 / deadzone=21,11 / fast_pskip=0 / chroma_qp_offset=-2 / threads=12 / lookahead_threads=2 / sliced_threads=0 / nr=0 / decimate=1 / interlaced=0 / bluray_compat=0 / constrained_intra=0 / bframes=3 / b_pyramid=2 / b_adapt=2 / b_bias=0 / direct=3 / weightb=1 / open_gop=0 / weightp=2 / keyint=250 / keyint_min=23 / scenecut=40 / intra_refresh=0 / rc_lookahead=50 / rc=2pass / mbtree=1 / bitrate=4454 / ratetol=1.0 / qcomp=0.60 / qpmin=0 / qpmax=69 / qpstep=4 / cplxblur=20.0 / qblur=0.5 / ip_ratio=1.40 / aq=1:1.00
Language                                 : English
Default                                  : No
Forced                                   : No

Audio #1
ID                                       : 2
Format                                   : AC-3
Format/Info                              : Audio Coding 3
Mode extension                           : CM (complete main)
Codec ID                                 : A_AC3
Duration                                 : 1h 29mn
Bit rate mode                            : Constant
Bit rate                                 : 192 Kbps
Channel(s)                               : 2 channels
Channel positions                        : Front: L R
Sampling rate                            : 48.0 KHz
Bit depth                                : 16 bits
Compression mode                         : Lossy
Stream size                              : 123 MiB (4%)
Language                                 : Russian
Default                                  : Yes
Forced                                   : Yes

Audio #2
ID                                       : 3
Format                                   : DTS
Format/Info                              : Digital Theater Systems
Codec ID                                 : A_DTS
Duration                                 : 1h 29mn
Bit rate mode                            : Constant
Bit rate                                 : 755 Kbps
Channel(s)                               : 6 channels
Channel positions                        : Front: L C R, Side: L R, LFE
Sampling rate                            : 48.0 KHz
Bit depth                                : 24 bits
Compression mode                         : Lossy
Delay relative to video                  : 11ms
Stream size                              : 485 MiB (14%)
Language                                 : English
Default                                  : No
Forced                                   : No

Menu
00:00:00.000                             : en:00:00:00.000
00:02:25.020                             : en:00:02:25.020
00:10:00.975                             : en:00:10:00.975
00:20:59.967                             : en:00:20:59.967
00:26:25.959                             : en:00:26:25.959
00:32:22.983                             : en:00:32:22.983
00:40:30.011                             : en:00:40:30.011
00:47:57.958                             : en:00:47:57.958
00:58:43.770                             : en:00:58:43.770
01:04:28.364                             : en:01:04:28.364
01:15:22.935                             : en:01:15:22.935
01:25:44.931                             : en:01:25:44.931

Скриншоты:


© Оформление by Ворон
pb.wtf



Скачать Зодиак: Предвестия апокалипсиса через торрент http://pic.kartinco.top/images/6/ordi9.jpg Скачать фильм Зодиак: Предвестия апокалипсиса через торрент бесплантно в хорошем качестве Е:Хранитель музея получает астрологическую скрижаль из слоновой кости 2000-летней давности, не зная о том, что она способна уничтожить ... 7 10 6
Торрент: Зарегистрирован [2015-02-10 19:17] · скачан: 253 раз
Статус: √ проверено
Размер: 3.4 GB
Как cкачать? Как скачать Зодиак: Предвестия апокалипсиса через торрент | qTorrent

% Раздел Тема Автор DL S | L
Фильмы 2014 [DVDrip, WEB-DLRip, HDrip] [ 1.37 GB ] Зодиак: Предвестия апокалипсиса / Zodiac: Signs of the Apocalypse [2014 HDRip Ворон Скачать
1 | 0
Фильмы 2014 [DVDrip, WEB-DLRip, HDrip] [ 1.75 GB ] Зодиак: Предвестия апокалипсиса / Zodiac: Signs of the Apocalypse [2014 HDRip-AVC Ворон Скачать
1 | 0

28-11-2019 20:33  

Отключить всю рекламу на сайте

10-02-2015 20:21 Зодиак: Предвестия апокалипсиса Скачать торрент  

ТВ 3pb.wtf



    Дорогой пользователь! Огромная просьба, поблагодарите релизера, оцените раздачу и оставьте свои комментарий, если Вы скачали Зодиак: Предвестия апокалипсиса через торрент бесплатно! Внесите свою лепту в развитие PiratBit!
    Комментировать посты могут только пользователи прошедшие не сложную регистрацию
    Показать сообщения:    

    Зодиак: Предвестия апокалипсиса через торрент
    Скачать бесплатно Зодиак: Предвестия апокалипсиса
    Зодиак: Предвестия апокалипсиса скачать торрент
    Зодиак: Предвестия апокалипсиса смотреть онлайн
    Cкачать фильм Зодиак: Предвестия апокалипсиса бесплатно
    Зодиак: Предвестия апокалипсиса скачать торрент в хорошем качестве
    Зодиак: Предвестия апокалипсиса смотреть онлайн бесплатно в хорошем качестве


    Вы не можете начинать темы
    Вы не можете отвечать на сообщения
    Вы не можете редактировать свои сообщения
    Вы не можете удалять свои сообщения
    Вы не можете голосовать в опросах
    Вы не можете прикреплять файлы к сообщениям
    Вы можете скачивать файлы