Наша группа ВК в очередной раз забанена мы уходим в Телеграм, присоединяйтесь!!!

Лицензия

30

iTunes

мы

iTunes

1

1 сезон

Чернобыль

iTunes

1+1

iTunes

Закатать в асфальт

8 сезон

Игра престолов

1 сезон

Ральф против интернета

ИГРА 18+

pack

ВАЖНО

!!Акция!!

Alien_RageХит недели

RePack

Resident Evil 21
pack

RePack

Metro:Exodus

!!Акция!!

Alien_Rage

RePack

fifa19

RePack

Assassins Creed: Odyssey

RePack

NEED FOR SPEED™ PAYBACK

3 сезон

9 сезон

Бесстыжие 9 сезон

Все сериалы

все сериалы на PB.wtf

RePack

FAR CRY 5
Ребята, катастрофически не хватает 2730р. для оплаты серверов за АПРЕЛЬ (всвязи с блокировками трафик упал в 3 раза), 1-2р., выручайте.
  

Капоне / Capone (Стив Карвер ) [1975, драма, криминал, биография, BDRip, Профессиональный многоголосый [Лицензия] pb.wtf

Капоне через торрент pb.wtf

Размер: 1.44 GB | Добавлен: 4 года 3 мес. назад | Торрент скачан:194 раза
Скачать  

10-02-2015 19:24 Капоне Скачать торрент  


Капоне / Capone
«From Underworld To Empire»

ИНФОРМАЦИЯ:
Год выпуска:1975
Страна: США
Жанр:драма, криминал, биография
Продолжительность01:41:18
Перевод:Профессиональный многоголосый [Лицензия]
Режиссер:Стив Карвер

В Ролях:


Бен Газзара (Al Capone), Гарри Гуардино (Johnny Torrio), Сьюзан Блейкли (Iris Crawford), Сильвестр Сталлоне (Frank Nitti), Джон Кассаветис (Frankie Yale), Фрэнк Кампанелла (Big Jim Colosimo), Джон Орхард (Dion O'Banion), Кармен Ардженциано (Jack McGurn), Джордж Чандлер (Robert E. Crowe), Джон Дэвис Чэндлер (Hymie Weiss), Ройал Дэно (Anton J. Cermak), Джо Де Николя (Charles Fischetti)

ОПИСАНИЕ:
В 1918 году крупнейшим мафиози был Торрио. Он учил Капоне общаться с политиками, судьями и адвокатами, учил его красиво говорить, одеваться и правильно вести себя в высшем обществе, чтобы никто не мог заподозрить, что он - из шпаны.
Постепенно Капоне приспособился к своим новым обязанностям и стал правой рукой Торрио. В городе учащались вооруженные мафиозные разборки. Соперники Торрио вынуждали его поделиться бизнесом. Капоне не мог с этим смириться и, понимая, что босса не переубедить, решил убить его и возглавить его мафиозную организацию.


ТЕХ.ДАННЫЕ:
Качество: BDRip
Формат:AVI
Видео кодек: XviD
Аудио кодек:AC3
Видео: XviD, 704x384 (16:9), 1580 kbps, 23,976 fps, 0,231 bpp
Аудио: AC3 / 5.1 / 48 kHz / 448 kbps / 16 bit

Код:

General
Complete name                            : D:\Торенты\Kapone.1975.Xvid.BDRip-MediaClub.avi
Format                                   : AVI
Format/Info                              : Audio Video Interleave
File size                                : 1.44 GiB
Duration                                 : 1h 41mn
Overall bit rate                         : 2 037 Kbps
Movie name                               : = MediaClub = rip by Painter
Writing application                      : VirtualDubMod 1.5.10.3 (build 2550/release)
Writing library                          : VirtualDubMod build 2550/release

Video
ID                                       : 0
Format                                   : MPEG-4 Visual
Format profile                           : Advanced Simple@L5
Format settings, BVOP                    : 2
Format settings, QPel                    : No
Format settings, GMC                     : No warppoints
Format settings, Matrix                  : Custom
Codec ID                                 : XVID
Codec ID/Hint                            : XviD
Duration                                 : 1h 41mn
Bit rate                                 : 1580 Kbps
Width                                    : 704 pixels
Height                                   : 384 pixels
Display aspect ratio                     : 16:9
Frame rate                               : 23.976 fps
Color space                              : YUV
Chroma subsampling                       : 4:2:0
Bit depth                                : 8 bits
Scan type                                : Progressive
Compression mode                         : Lossy
Bits/(Pixel*Frame)                       : 0.231
Stream size                              : 1.06 GiB (74%)
Writing library                          : XviD 73

Audio
ID                                       : 1
Format                                   : AC-3
Format/Info                              : Audio Coding 3
Mode extension                           : CM (complete main)
Codec ID                                 : 2000
Duration                                 : 1h 41mn
Bit rate mode                            : Constant
Bit rate                                 : 448 Kbps
Channel(s)                               : 6 channels
Channel positions                        : Front: L C R, Side: L R, LFE
Sampling rate                            : 48.0 KHz
Bit depth                                : 16 bits
Compression mode                         : Lossy
Stream size                              : 325 MiB (22%)
Alignment                                : Split accross interleaves

Скриншоты:


© Оформление by Ворон
pb.wtf



Скачать Капоне через торрент http://pic.kartinco.top/images/6/ordi9.jpg Скачать фильм Капоне через торрент бесплантно в хорошем качестве Е:В 1918 году крупнейшим мафиози был Торрио. Он учил Капоне общаться с политиками, судьями и адвокатами, учил его красиво говорить, ... 10 10 4
Торрент: Зарегистрирован [2015-02-10 19:24] · скачан: 194 раз
Статус: √ проверено
Размер: 1.44 GB
Как cкачать? Как скачать Капоне через торрент | qTorrent

% Раздел Тема Автор DL S | L
Фильмы [HD 720p, 1080p] (Хороший звук DUB, MVO) [ 4.37 GB ] Капоне / Capone [1975 биография BDRip 720p многоголосый [] Ворон Скачать
1 | 0
Порно фильмы с сюжетом [ 1.2 GB ] Жаркая Жизнь Аль Капоне / La Vie Torride De Al Capone / Butterfly Motion Pictures / Video Marc Dorcel.) [1995 Feayure. DVDRip Оригинал] Pir@tya2010 Скачать
2 | 0
Классика зарубежного кино [ 747 MB ] Аль Капоне / Al Capone [1959 биография DVDRip] DVO -=Cherry=- Скачать
1 | 0
Документальные фильмы и телепередачи [ 470 MB ] Чикаго времен Аль Капоне / Al Capone’s Chicago [2000 документальное кино DVDRip] Dave Batista Скачать
1 | 0


>> Регистрируемся здесь <<






Отзывы и комментарии о схеме читаем и пишем здесь: ---> Отзывы и комментарии о схеме

Новые благодарочки в телеграм довольных пользователей:
скриншот   скриншот   скриншот   скриншот   скриншот
    Дорогой пользователь! Огромная просьба, поблагодарите релизера, оцените раздачу и оставьте свои комментарий, если Вы скачали Капоне через торрент бесплатно! Внесите свою лепту в развитие PiratBit!
    Комментировать посты могут только пользователи прошедшие не сложную регистрацию
    Показать сообщения:    

    Капоне через торрент
    Скачать бесплатно Капоне
    Капоне скачать торрент
    Капоне смотреть онлайн
    Cкачать фильм Капоне бесплатно
    Капоне скачать торрент в хорошем качестве
    Капоне смотреть онлайн бесплатно в хорошем качестве


    Вы не можете начинать темы
    Вы не можете отвечать на сообщения
    Вы не можете редактировать свои сообщения
    Вы не можете удалять свои сообщения
    Вы не можете голосовать в опросах
    Вы не можете прикреплять файлы к сообщениям
    Вы можете скачивать файлы