Ссылка на приватное зеркало нашего сайта всего за 1$. Внимание количество ограничено!!!

2 сезон

iTunes

1 сезон

1

2 сезон

2 сезон

iTunes

1 сезон

RePack

30

Ultimate

ВАЖНО

ИГРА 18+

pack

RePack

MK11
pack

Забери бонус

RePack

jed

!!Акция!!

Alien_Rage

RePack

fifa19

RePack

Assassins Creed: Odyssey

RePack

NEED FOR SPEED™ PAYBACK

4 сезон

9 сезон

Бесстыжие 9 сезон

Все сериалы

все сериалы на PB.wtf

RePack

FAR CRY 5
  

Скандал / Scandal / Сезон: 4 / Серии: 1-4 из 22 (Том Верика, Оливер Бокельберг, Эллисон Лидди) [2014, драма, триллер, WEB-DL 720p] MVO (Fox Life) Original+ Subs pb.wtf

Скандал через торрент pb.wtf

Размер: 5.68 GB | Добавлен: 5 лет 8 мес. назад | Торрент скачан:5 раз
Скачать  

11-02-2015 06:47 Скандал Скачать торрент  

Скандал / Scandal
Год выпуска: 2015
Страна: США
Жанр: Драма, триллер
Продолжительность: 00:41:00
Перевод: Профессиональный многоголосый
Субтитры: Русские, английские
Режиссер: Роксанн Доусон



В ролях: Керри Вашингтон, Коламбус Шорт, Дэрби Стэнчфилд, Кэти Лоус, Гильермо Диас, Джефф Перри, Джошуа Малина, Беллами Янг, Тони Голдуин, Дэн Букатинский

Описание: Специалист по связям с общественностью Оливия Поуп, ранее работавшая на президента США, создает свое антикризисное агенство, цель которого — устранять проблемы высокопоставленных клиентов до того, как они станут всеобщим достоянием. Но если Вы посвящаете 24 часа в сутки решению проблем других людей, у Вас просто не будет времени, чтобы заняться своей собственной жизнью. Поэтому несмотря на то, что Оливия и ее команда самых блестящих специалистов прекрасно справляются с решением самых деликатных ситуаций своих клиентов, их собственная жизнь полна всякого рода проблем.

Качество: WEB-DL 720p
Формат: MKV
Видео кодек: AVC
Аудио кодек: AC3
Видео: 1280x720 (16:9), 25.000 fps, 4 442 Kbps (0.193 bit/pixel)
Аудио#1: 48.0 KHz, 2 ch, 192 Kbps, CBR (Russian)
Аудио#2: 48.0 KHz, 6 ch, 384 Kbps, CBR (English)
Запись, работа со звуком, тайминг субтитров: SerGV
Субтитры: Notabenoid
General
Unique ID : 201837526476510290867558396083019857268 (0x97D87E5D8053B9579EBB8415234A3D74)
Complete name : G:\Сериалы\Скандал\Scandal.2014.S04.720p.WEB-DL.Rus.Eng.Sub.CasStudio.TV\Scandal.2014.S04E01.720p.WEB-DL.Rus.Eng.Sub.CasStudio.TV.mkv
Format : Matroska
Format version : Version 4 / Version 2
File size : 1.48 GiB
Duration : 41mn 17s
Overall bit rate : 5 120 Kbps
Movie name : S04E01 - Randy, Red, Superfreak and Julia (Ренди, Рэд, Суперфрик и Джулия) @ CasStudio.TV
Encoded date : UTC 2015-02-16 14:36:15
Writing application : mkvmerge v7.4.0 ('Circles') 32bit built on Dec 12 2014 12:10:09
Writing library : libebml v1.3.0 + libmatroska v1.4.1
_STATISTICS_WRITING_APP : mkvmerge v7.4.0 ('Circles') 32bit built on Dec 12 2014 12:10:09
_STATISTICS_WRITING_DATE_UT : 2015-02-16 14:36:15
_STATISTICS_TAGS : BPS DURATION NUMBER_OF_FRAMES NUMBER_OF_BYTES
DURATION : 00:40:44.680000000
NUMBER_OF_FRAMES : 978
NUMBER_OF_BYTES : 31587

Video
ID : 1
Format : AVC
Format/Info : Advanced Video Codec
Format profile : High@L3.1
Format settings, CABAC : No
Format settings, ReFrames : 2 frames
Codec ID : V_MPEG4/ISO/AVC
Duration : 41mn 17s
Bit rate : 4 442 Kbps
Width : 1 280 pixels
Height : 720 pixels
Display aspect ratio : 16:9
Frame rate mode : Constant
Frame rate : 25.000 fps
Color space : YUV
Chroma subsampling : 4:2:0
Bit depth : 8 bits
Scan type : Progressive
Bits/(Pixel*Frame) : 0.193
Stream size : 1.28 GiB (87%)
Default : Yes
Forced : No
Color primaries : BT.709
Transfer characteristics : BT.709
Matrix coefficients : BT.709
Color range : Limited
_STATISTICS_WRITING_APP : mkvmerge v7.4.0 ('Circles') 32bit built on Dec 12 2014 12:10:09
_STATISTICS_WRITING_DATE_UT : 2015-02-16 14:36:15
_STATISTICS_TAGS : BPS DURATION NUMBER_OF_FRAMES NUMBER_OF_BYTES
DURATION : 00:41:17.640000000
NUMBER_OF_FRAMES : 61941
NUMBER_OF_BYTES : 1406467869

Audio #1
ID : 2
Format : AC-3
Format/Info : Audio Coding 3
Mode extension : CM (complete main)
Format settings, Endianness : Big
Codec ID : A_AC3
Duration : 41mn 17s
Bit rate mode : Constant
Bit rate : 192 Kbps
Channel(s) : 2 channels
Channel positions : Front: L R
Sampling rate : 48.0 KHz
Bit depth : 16 bits
Compression mode : Lossy
Stream size : 56.7 MiB (4%)
Language : Russian
Default : Yes
Forced : No

Audio #2
ID : 3
Format : AC-3
Format/Info : Audio Coding 3
Mode extension : CM (complete main)
Format settings, Endianness : Big
Codec ID : A_AC3
Duration : 41mn 17s
Bit rate mode : Constant
Bit rate : 384 Kbps
Channel(s) : 6 channels
Channel positions : Front: L C R, Side: L R, LFE
Sampling rate : 48.0 KHz
Bit depth : 16 bits
Compression mode : Lossy
Stream size : 113 MiB (8%)
Language : English
Default : No
Forced : No

Text #1
ID : 4
Format : UTF-8
Codec ID : S_TEXT/UTF8
Codec ID/Info : UTF-8 Plain Text
Language : Russian
Default : No
Forced : No

Text #2
ID : 5
Format : UTF-8
Codec ID : S_TEXT/UTF8
Codec ID/Info : UTF-8 Plain Text
Language : English
Default : No
Forced : No

Внимание! Раздача ведётся путём добавления новых серий; при каждом добавлении создётся новый торрент. Чтобы начать докачку новой серии, пользователям необходимо сделать следующее:
(1) остановить скачивание,
(2) удалить старый торрент у себя из клиента (старые серии удалять не надо),
(3) скачать новый торрент и запустить его у себя в клиенте вместо старого, при этом указать клиенту путь в старую папку куда и должно происходить скачивание новых серий.

Ваш клиент при этом должен произвести хеширование (проверку) старой папки (если не производит сам - помогите ему сделать это), и будет докачивать только те серии которых у вас ещё нет. Старые серии при этом не удаляются, а продолжают раздаваться!

Eсли вы уже удалили старые серии, то предотвратить повторную закачку старых серий можно, отжав галочку в соответсвующих местах при запуске нового торрента. По возможности, желательно не удалять старые серии как можно дольше чтобы релизёр не столько продолжал раздавать старые серии, а смог сконцентрироваться на новых.
pb.wtf



Скачать Скандал через торрент http://pic1.kartinco.top/images/9/z6g39.jpg Скачать фильм Скандал через торрент бесплантно в хорошем качестве Описание: Специалист по связям с общественностью Оливия Поуп, ранее работавшая на президента США, создает свое антикризисное агенство, цель ... 8.7 10 3
Info! Золотая раздача, скачанное не засчитывается.
Торрент: Зарегистрирован [2015-03-04 06:33] · скачан: 5 раз
Статус: √ проверено
Размер: 5.68 GB
Как cкачать? Как скачать Скандал через торрент | qTorrent

% Раздел Тема Автор DL S | L
Зарубежные сериалы [ 2.77 GB ] Скандал / Scandal / Сезон: 4 / Серии: 1-4 из 22 [2014 WEB-DLRip] MVO Original+ Subs Assasinca Скачать
1 | 0

28-11-2019 20:33  

Отключить всю рекламу на сайте

04-03-2015 06:33 Скандал Скачать торрент  

добавлена 4-я серияpb.wtf



    Дорогой пользователь! Огромная просьба, поблагодарите релизера, оцените раздачу и оставьте свои комментарий, если Вы скачали Скандал через торрент бесплатно! Внесите свою лепту в развитие PiratBit!
    Комментировать посты могут только пользователи прошедшие не сложную регистрацию
    Показать сообщения:    

    Скандал через торрент
    Скачать бесплатно Скандал
    Скандал скачать торрент
    Скандал смотреть онлайн
    Cкачать фильм Скандал бесплатно
    Скандал скачать торрент в хорошем качестве
    Скандал смотреть онлайн бесплатно в хорошем качестве


    Вы не можете начинать темы
    Вы не можете отвечать на сообщения
    Вы не можете редактировать свои сообщения
    Вы не можете удалять свои сообщения
    Вы не можете голосовать в опросах
    Вы не можете прикреплять файлы к сообщениям
    Вы можете скачивать файлы