Ссылка на приватное зеркало нашего сайта всего за 1$. Внимание количество ограничено!!!

2 сезон

iTunes

1 сезон

1

2 сезон

2 сезон

iTunes

1 сезон

RePack

30

Новинка

ВАЖНО

ИГРА 18+

pack

RePack

MK11
pack

Забери бонус

RePack

jed

!!Акция!!

Alien_Rage

RePack

fifa19

RePack

Assassins Creed: Odyssey

RePack

NEED FOR SPEED™ PAYBACK

4 сезон

9 сезон

Бесстыжие 9 сезон

Все сериалы

все сериалы на PB.wtf

RePack

FAR CRY 5
  

Патруль времени / Предопределение / Predestination (Майкл Спириг, Питер Спириг) [2014 г., фантастика, триллер, BDRemux] AVO[Дмитрий Есарев] + Original pb.wtf

Патруль времени через торрент pb.wtf

Размер: 19.92 GB | Добавлен: 6 лет назад | Торрент скачан:103 раза
Скачать  

30-11-2014 09:12 Патруль времени Скачать торрент  

Информация о фильме

Название: Патруль времени

Оригинальное название: Predestination

Год выхода: 2014

Выпущено: Австралия

Продолжительность: 01:37:48

Перевод: Авторский (одноголосый, закадровый) - Д. Есарев

Жанр: Триллер, фантастика

Режиссер: Майкл Спириг, Питер Спириг

В ролях: Сара Снук, Итан Хоук, Ноа Тейлор, Элиз Джэнсен, Фрея Стэффорд, Кристофер Кирби, Кейт Вульф, Алексис Фернандес, Люсинда Армстронг Холл, Алисия Павлис



Описание: Специальный агент постоянно находится между прошлым и будущим, чтобы обеспечить себе карьеру законника длиною в вечность. В своем последнем задании ему предстоит завербовать в прошлом самого себя и, наконец, задержать преступника, который вновь и вновь ускользает от него в другое время, находясь всегда на шаг впереди него.









Файл

Качество: BDRemux 1080p

Формат: MKV

Видео кодек: H.264

Аудио кодек: AC3

Видео: MPEG4/AVC, 1920х1080 (16:9), 24891 Кбит/сек, 23.976 кадра/сек

Аудио 1: AC3, 6 каналов, 640 Кбит/сек | Д. Есарев - не нормативная лексика

Аудио 2: DTS, 6 каналов, 1509 Кбит/сек | Д. Есарев

Аудио 3: DTS-HD / 5.1 / 48 kHz / 2112 kbps / 16-bit (DTS Core: 5.1 / 48 kHz / 1509 kbps / 16-bit) | Английский

Субтитры: Английские

Навигация по главам: Есть
Общее

Уникальный идентификатор : 225795049355403193486296762559252938029 (0xA9DE8B70767B87BDA0C1A8B4B8603D2D)

Полное имя : Predestination. (2014) BDRemux 1080p.mkv

Формат : Matroska

Версия формата : Version 2

Размер файла : 19,9 Гбайт

Продолжительность : 1 ч. 37 м.

Режим общего битрейта : Переменный

Общий поток : 29,2 Мбит/сек

Название фильма : Predestination. 2014. BDRemux

Дата кодирования : UTC 2014-11-25 12:26:20

Программа кодирования : mkvmerge v5.8.0 ('No Sleep / Pillow') built on Sep 2 2012 15:37:04

Библиотека кодирования : libebml v1.2.3 + libmatroska v1.3.0



Видео

Идентификатор : 1

Формат : AVC

Формат/Информация : Advanced Video Codec

Профиль формата : High@L4.1

Параметр CABAC формата : Да

Параметр ReFrames формата : 2 кадра

Параметр GOP формата : M=1, N=10

Идентификатор кодека : V_MPEG4/ISO/AVC

Продолжительность : 1 ч. 37 м.

Вид битрейта : Переменный

Ширина : 1920 пикселей

Высота : 1080 пикселей

Соотношение сторон : 16:9

Режим частоты кадров : Постоянный

Частота кадров : 23,976 кадра/сек

Цветовое пространство : YUV

Субдискретизация насыщенности : 4:2:0

Битовая глубина : 8 бит

Тип развёртки : Прогрессивная

Заголовок : BuR

Язык : English

Default : Да

Forced : Нет



Аудио #1

Идентификатор : 2

Формат : AC-3

Формат/Информация : Audio Coding 3

Расширение режима : CM (complete main)

Параметр Endianness формата : Big

Идентификатор кодека : A_AC3

Продолжительность : 1 ч. 37 м.

Вид битрейта : Постоянный

Битрейт : 640 Кбит/сек

Каналы : 6 каналов

Расположение каналов : Front: L C R, Side: L R, LFE

Частота : 48,0 КГц

Битовая глубина : 16 бит

Метод сжатия : С потерями

Размер потока : 448 Мбайт (2%)

Заголовок : A | Д.Есарев | Не нормативная лексика

Язык : Russian

Default : Да

Forced : Нет



Аудио #2

Идентификатор : 3

Формат : DTS

Формат/Информация : Digital Theater Systems

Режим : 16

Параметр Endianness формата : Big

Идентификатор кодека : A_DTS

Продолжительность : 1 ч. 37 м.

Вид битрейта : Постоянный

Битрейт : 1510 Кбит/сек

Каналы : 6 каналов

Расположение каналов : Front: L C R, Side: L R, LFE

Частота : 48,0 КГц

Битовая глубина : 24 бит

Метод сжатия : С потерями

Размер потока : 1,03 Гбайт (5%)

Заголовок : A | Д.Есарев

Язык : Russian

Default : Нет

Forced : Нет



Аудио #3

Идентификатор : 4

Формат : DTS

Формат/Информация : Digital Theater Systems

Профиль формата : MA / Core

Режим : 16

Параметр Endianness формата : Big

Идентификатор кодека : A_DTS

Продолжительность : 1 ч. 37 м.

Вид битрейта : Переменный

Битрейт : Неизвестно / 1509 Кбит/сек

Каналы : 6 каналов

Расположение каналов : Front: L C R, Side: L R, LFE

Частота : 48,0 КГц

Битовая глубина : 16 бит

Метод сжатия : Без потерь / Lossy

Заголовок : DTS-HD | Original

Язык : English

Default : Нет

Forced : Нет



Текст

Идентификатор : 5

Формат : UTF-8

Идентификатор кодека : S_TEXT/UTF8

Идентификатор кодека/Информация : UTF-8 Plain Text

Заголовок : Full

Язык : English

Default : Нет

Forced : Нет



Меню

00:00:00.000 : en:00:00:00.000

00:06:04.656 : en:00:06:04.656

00:08:31.678 : en:00:08:31.678

00:15:55.538 : en:00:15:55.538

00:22:33.602 : en:00:22:33.602

00:28:53.273 : en:00:28:53.273

00:34:25.689 : en:00:34:25.689

00:41:07.632 : en:00:41:07.632

00:47:33.059 : en:00:47:33.059

00:52:05.372 : en:00:52:05.372

00:58:46.356 : en:00:58:46.356

01:05:18.832 : en:01:05:18.832

01:12:06.656 : en:01:12:06.656

01:17:43.117 : en:01:17:43.117

01:22:50.382 : en:01:22:50.382

01:29:37.956 : en:01:29:37.956
pb.wtf



Скачать Патруль времени через торрент http://3.firepic.org/3/images/2014-11/25/ef2hel1pna32.jpg Скачать фильм Патруль времени через торрент бесплантно в хорошем качестве Описание: Специальный агент постоянно находится между прошлым и будущим, чтобы обеспечить себе карьеру законника длиною в вечность. В своем ... 9.8 10 5
Торрент: Зарегистрирован [2014-11-30 09:12] · скачан: 103 раз
Статус: √ проверено
Размер: 19.92 GB
Как cкачать? Как скачать Патруль времени через торрент | qTorrent

% Раздел Тема Автор DL S | L
Фильмы [HD 720p, 1080p] (Хороший звук DUB, MVO) [ 3.19 GB ] Предопределение / Predestination [2014 BDRip 720p]MVO+Original Assasinca Скачать
1 | 0
Фильмы с авторской озвучкой [ 6.42 GB ] Патруль времени / Предопределение / Predestination [2014 BDRip 720p]AVO[Дмитрий Есарев] + Original Assasinca Скачать
1 | 0

28-11-2019 20:33  

Отключить всю рекламу на сайте

    Дорогой пользователь! Огромная просьба, поблагодарите релизера, оцените раздачу и оставьте свои комментарий, если Вы скачали Патруль времени через торрент бесплатно! Внесите свою лепту в развитие PiratBit!
    Комментировать посты могут только пользователи прошедшие не сложную регистрацию
    Показать сообщения:    

    Патруль времени через торрент
    Скачать бесплатно Патруль времени
    Патруль времени скачать торрент
    Патруль времени смотреть онлайн
    Cкачать фильм Патруль времени бесплатно
    Патруль времени скачать торрент в хорошем качестве
    Патруль времени смотреть онлайн бесплатно в хорошем качестве


    Вы не можете начинать темы
    Вы не можете отвечать на сообщения
    Вы не можете редактировать свои сообщения
    Вы не можете удалять свои сообщения
    Вы не можете голосовать в опросах
    Вы не можете прикреплять файлы к сообщениям
    Вы можете скачивать файлы