Ссылка на приватное зеркало нашего сайта всего за 1$. Внимание количество ограничено!!!

2 сезон

iTunes

1 сезон

1

iTunes

iTunes

iTunes

1 сезон

RePack

30

ИГРА 18+

pack

ВАЖНО

!!Акция!!

Alien_RageХит недели

RePack

MK11
pack

Забери бонус

RePack

jed

!!Акция!!

Alien_Rage

RePack

fifa19

RePack

Assassins Creed: Odyssey

RePack

NEED FOR SPEED™ PAYBACK

4 сезон

9 сезон

Бесстыжие 9 сезон

Все сериалы

все сериалы на PB.wtf

RePack

FAR CRY 5
  

Слава (Антон Азаров)(1-4 из 4) [2014 г., Драма, спорт, биография, WEB-DLRip] pb.wtf

Слава через торрент pb.wtf

Размер: 2.34 GB | Добавлен: 5 лет 8 мес. назад | Торрент скачан:640 раз
Скачать  

11-02-2015 16:36 Слава Скачать торрент  

Слава
Год выпуска: 2014
премьера (РФ)18 февраля 2015
Страна: Россия
Жанр: Драма, спорт, биография
Продолжительность: ~ 00:50:00

Режиссер: Антон Азаров

В ролях: Евгений Пронин, Валерий Баринов, Антон Хабаров, Юрий Горбач, Сергей Потапов, Любава Грешнова, Артем Черненко, Михаил Гаврилов, Владимир Литвинов, Михаил Шамигулов, Сергей Чернобай, Дмитрий Сапронов

Описание: В основе сюжета картины – подлинная история жизни легендарного спортсмена-хоккеиста, заслуженного мастера спорта СССР, Заслуженного тренера России Вячеслава Фетисова

Качество: WEB-DLRip
Формат: AVI
Видео кодек: XviD
Аудио кодек: AC3
Видео: 720x400 (16:9), 25.000 fps, 1 390 Kbps (0.193 bit/pixel)
Аудио#1: 48.0 KHz, 2 ch, 192 Kbps, CBR
Добавлены 2-4 серии.
General
Complete name : G:\Slava.2014.WEB-DLRip.Files-x\01.Slava.2014.WEB-DLRip.Files-x.avi
Format : AVI
Format/Info : Audio Video Interleave
File size : 599 MiB
Duration : 50mn 30s
Overall bit rate : 1 657 Kbps
Writing application : VirtualDubMod 1.5.10.3 | www.virtualdub-fr.org || (build 2550/release)
Writing library : VirtualDubMod build 2550/release

Video
ID : 0
Format : MPEG-4 Visual
Format profile : Advanced Simple@L5
Format settings, BVOP : 1
Format settings, QPel : No
Format settings, GMC : No warppoints
Format settings, Matrix : Custom
Codec ID : XVID
Codec ID/Hint : XviD
Duration : 50mn 30s
Bit rate : 1 455 Kbps
Width : 720 pixels
Height : 400 pixels
Display aspect ratio : 16:9
Frame rate : 25.000 fps
Color space : YUV
Chroma subsampling : 4:2:0
Bit depth : 8 bits
Scan type : Progressive
Compression mode : Lossy
Bits/(Pixel*Frame) : 0.202
Stream size : 526 MiB (88%)
Writing library : XviD 73

Audio
ID : 1
Format : AC-3
Format/Info : Audio Coding 3
Mode extension : CM (complete main)
Format settings, Endianness : Big
Codec ID : 2000
Duration : 50mn 30s
Bit rate mode : Constant
Bit rate : 192 Kbps
Channel(s) : 2 channels
Channel positions : Front: L R
Sampling rate : 48.0 KHz
Bit depth : 16 bits
Compression mode : Lossy
Stream size : 69.4 MiB (12%)
Alignment : Split accross interleaves
Interleave, duration : 40 ms (1.00 video frame)
Interleave, preload duratio : 500 ms

Внимание! Раздача ведётся путём добавления новых серий; при каждом добавлении создаётся новый торрент. Чтобы начать докачку новой серии, пользователям необходимо сделать следующее:
(1) остановить скачивание,
(2) удалить старый торрент у себя из клиента (старые серии удалять не надо),
(3) скачать новый торрент и запустить его у себя в клиенте вместо старого, при этом указать клиенту путь в старую папку куда и должно происходить скачивание новых серий.
Ваш клиент при этом должен произвести хеширование (проверку) старой папки (если не производит сам - помогите ему сделать это), и будет докачивать только те серии которых у вас ещё нет. Старые серии при этом не удаляются, а продолжают раздаваться!
Eсли вы уже удалили старые серии, то предотвратить повторную закачку старых серий можно, отжав галочку в соответствующих местах при запуске нового торрента. По возможности, желательно не удалять старые серии как можно дольше чтобы релизёр не столько продолжал раздавать старые серии, а смог сконцентрироваться на новых.
pb.wtf



Скачать Слава через торрент http://pic1.kartinco.top/images/9/8uv3i.jpg Скачать фильм Слава через торрент бесплантно в хорошем качестве Описание: В основе сюжета картины – подлинная история жизни легендарного спортсмена-хоккеиста, заслуженного мастера спорта СССР, ... 9.3 10 24
Торрент: Зарегистрирован [2015-02-11 19:26] · скачан: 640 раз
Статус: √ проверено
Размер: 2.34 GB
Как cкачать? Как скачать Слава через торрент | qTorrent

% Раздел Тема Автор DL S | L
Отечественная Поп музыка (lossless) [ 477 MB ] Слава - Крик души 2019 / FLAC / lossless / Поп bober100 Скачать
4 | 0
Фильмы 2019-2020 [DVDrip, WEB-DLRip, HDrip] (DUB, MVO) [ 1.46 GB ] Дурная слава / Печально известные / Infamous [2020 WEB-DLRip] bober100 Скачать
4 | 0
Фильмы 2019-2020 [DVDrip, WEB-DLRip, HDrip] (DUB, MVO) [ 745 MB ] Дурная слава / Печально известные / Infamous [2020 WEB-DLRip] bober100 Скачать
2 | 0
Фильмы (WEB-DL 720p, 1080p) [ 5.88 GB ] Дурная слава / Печально известные / Infamous [2020 WEB-DL 1080p] bober100 Скачать
4 | 0
Фильмы (HD 720p, 1080p) (48-60 fps) [ 3.53 GB ] 15 минут славы / 15 Minutes [2001 BDRip 720p / 60 FPS [[Мосфильм-Мастер]] alien2015 Скачать
1 | 0
Рок, Панк, Альтернатива (lossless) [ 424 MB ] Вячеслав Бутусов & Орден Славы - Аллилуия 2019 / FLAC / lossless / Рок bober100 Скачать
2 | 0
Фильмы [HD 720p, 1080p] (Хороший звук DUB, MVO) [ 3.85 GB ] Слава богу сегодня пятница / Thank God It's Friday [1978 музыка BDRip 720p by msltel] MVO msltel Скачать
1 | 0

28-11-2019 20:33  

Отключить всю рекламу на сайте

15-05-2015 20:47 Слава Скачать торрент  

Спасибо!!!pb.wtf



20-05-2015 07:20 Слава Скачать торрент  

Поглядим че за зверь. Мне как любителю данного спорта интересно вдвойне. Спасибо за раздачу.pb.wtf



21-05-2015 10:21 Слава Скачать торрент  

Посмотрел... Фильм г..., причем полное. Хоккея там меньше чем ничего, а то что есть ставили какие криворукие. Молодежка по сравнению с эти просто шедев. Пол фильма Фетисов бегает по Союзу и кричит что хочет на западе играть за много-много денег. :hunter: Просто песец какой то.pb.wtf



08-06-2015 13:27 Слава Скачать торрент  

Evgeniy 23 писал(а):

Посмотрел... Фильм г..., причем полное. Хоккея там меньше чем ничего, а то что есть ставили какие криворукие. Молодежка по сравнению с эти просто шедев. Пол фильма Фетисов бегает по Союзу и кричит что хочет на западе играть за много-много денег. :hunter: Просто песец какой то.

вам в картине показали почему фетисов рвался в америку, видимо вы невнимательно смотрели, а по поводу денег, хм... представьте что вам завтра начальник придет и скажет, что теперь 80% зп будешь отдавать в фирму для развития, разве вы станете молчать?pb.wtf



    Дорогой пользователь! Огромная просьба, поблагодарите релизера, оцените раздачу и оставьте свои комментарий, если Вы скачали Слава через торрент бесплатно! Внесите свою лепту в развитие PiratBit!
    Комментировать посты могут только пользователи прошедшие не сложную регистрацию
    Показать сообщения:    

    Слава через торрент
    Скачать бесплатно Слава
    Слава скачать торрент
    Слава смотреть онлайн
    Cкачать фильм Слава бесплатно
    Слава скачать торрент в хорошем качестве
    Слава смотреть онлайн бесплатно в хорошем качестве


    Вы не можете начинать темы
    Вы не можете отвечать на сообщения
    Вы не можете редактировать свои сообщения
    Вы не можете удалять свои сообщения
    Вы не можете голосовать в опросах
    Вы не можете прикреплять файлы к сообщениям
    Вы можете скачивать файлы