Ссылка на приватное зеркало нашего сайта всего за 1$. Внимание количество ограничено!!!

2 сезон

iTunes

1 сезон

1

iTunes

iTunes

iTunes

1 сезон

RePack

30

ИГРА 18+

pack

ВАЖНО

!!Акция!!

Alien_RageХит недели

RePack

MK11
pack

Забери бонус

RePack

jed

!!Акция!!

Alien_Rage

RePack

fifa19

RePack

Assassins Creed: Odyssey

RePack

NEED FOR SPEED™ PAYBACK

4 сезон

9 сезон

Бесстыжие 9 сезон

Все сериалы

все сериалы на PB.wtf

RePack

FAR CRY 5
  

Царь скорпионов 4: Утерянный трон (Майк Эллиот) [2015, США, боевик, BDRip 720p, Дублированное [iTunes] pb.wtf

Царь скорпионов 4: Утерянный трон через торрент pb.wtf

Размер: 7.16 GB | Добавлен: 5 лет 8 мес. назад | Торрент скачан:198 раз
Скачать  

11-02-2015 21:26 Царь скорпионов 4: Утерянный трон Скачать торрент  

Царь скорпионов 4: Утерянный трон / The Scorpion King: The Lost Throne


  • Год выпуска: 2015
  • Страна: США
  • Жанр: боевик
  • Продолжительность: 01:44:51
  • Перевод: Дублированное [iTunes]

  • Режиссер: Майк Эллиот / Mike Elliott
  • В ролях:

    Ройс Грейси (Anngar), Эсме Бьянко, Майкл Бин, Бэрри Боствик, Стивен Данливи, Грант Эллиотт, Лу Ферриньо (Skizurra), Ли Гилл (Chief Onus), Роджер Халстон (Roland), Брэндон Хардести, Рутгер Хауэр (King Zakour), Эллен Холлман

  • Описание:
    В очередной киноленте о «Царе скорпионов» мы увидим как отстранённый от своего трона король-воин Метайюс принимает решение отправиться на самое страшное и ужасное задание своей жизни. Все это Метайюс решает сделать ради того, чтобы на его земле снова воцарился мир. Все вроде бы шло своим чередом, но однажды от Метайюса отворачивается его самый близкий и лучший друг, такого он никак не мог предвидеть. Теперь герой самолично должен противостоять страшному злодею, который готов на все только бы убить его. Сможет ли Метайюс, приложив все свои силы, противостоять своему противнику?! И добьётся ли наш герой того, ради чего он отважился на эту битву, наступит ли умиротворение на его земле?!
  • Рейтинг:



  • Качество: BDRip 720p
  • Формат: :MKV
  • Видео кодек: AVC
  • Аудио кодек: AC3, DTS
  • Видео: 1280x720 (16:9), 5947 kbps, 23,976 fps, 0,269 bpp
  • Аудио №1: русский / 5.1 / 48 kHz / 384 kbps / 16 bit
  • Аудио №2: английский / 5.1 / 48 kHz / 1510 kbps / 24 bit
  • Оформление: GEKADOL

    Код:

    General
    Unique ID                                : 215524708788585108144544527590151387418 (0xA2248C8DF596BCA89C1292BD6A1F791A)
    Complete name                            : I:\The.Scorpion.King.4.Quest.for.Power.2015.720p.BluRay.Rus.Eng.mkv
    Format                                   : Matroska
    Format version                           : Version 4 / Version 2
    File size                                : 5.74 GiB
    Duration                                 : 1h 44mn
    Overall bit rate                         : 7 835 Kbps
    Encoded date                             : UTC 2015-01-10 04:26:58
    Writing application                      : mkvmerge v7.4.0 ('Circles') 64bit built on Dec 12 2014 12:19:56
    Writing library                          : libebml v1.3.0 + libmatroska v1.4.1
    DURATION                                 : 01:44:51.296000000
    NUMBER_OF_FRAMES                         : 196603
    NUMBER_OF_BYTES                          : 301982208
    _STATISTICS_WRITING_APP                  : mkvmerge v7.4.0 ('Circles') 64bit built on Dec 12 2014 12:19:56
    _STATISTICS_WRITING_DATE_UTC             : 2015-01-10 04:26:58
    _STATISTICS_TAGS                         : BPS DURATION NUMBER_OF_FRAMES NUMBER_OF_BYTES

    Video
    ID                                       : 1
    Format                                   : AVC
    Format/Info                              : Advanced Video Codec
    Format profile                           : High@L4.1
    Format settings, CABAC                   : Yes
    Format settings, ReFrames                : 5 frames
    Codec ID                                 : V_MPEG4/ISO/AVC
    Duration                                 : 1h 44mn
    Bit rate                                 : 5 947 Kbps
    Width                                    : 1 280 pixels
    Height                                   : 720 pixels
    Display aspect ratio                     : 16:9
    Frame rate                               : 23.976 fps
    Color space                              : YUV
    Chroma subsampling                       : 4:2:0
    Bit depth                                : 8 bits
    Scan type                                : Progressive
    Bits/(Pixel*Frame)                       : 0.269
    Stream size                              : 4.24 GiB (74%)
    Writing library                          : x264 core 142 r2479 dd79a61
    Encoding settings                        : cabac=1 / ref=5 / deblock=1:0:0 / analyse=0x3:0x133 / me=umh / subme=7 / psy=1 / psy_rd=1.00:0.00 / mixed_ref=1 / me_range=16 / chroma_me=1 / trellis=1 / 8x8dct=1 / cqm=0 / deadzone=21,11 / fast_pskip=0 / chroma_qp_offset=-2 / threads=18 / lookahead_threads=3 / sliced_threads=0 / nr=0 / decimate=1 / interlaced=0 / bluray_compat=0 / constrained_intra=0 / bframes=3 / b_pyramid=2 / b_adapt=1 / b_bias=0 / direct=1 / weightb=1 / open_gop=0 / weightp=2 / keyint=250 / keyint_min=23 / scenecut=40 / intra_refresh=0 / rc_lookahead=40 / rc=2pass / mbtree=1 / bitrate=5947 / ratetol=1.0 / qcomp=0.60 / qpmin=0 / qpmax=69 / qpstep=4 / cplxblur=20.0 / qblur=0.5 / ip_ratio=1.40 / aq=1:1.00
    Language                                 : English
    Default                                  : Yes
    Forced                                   : No
    DURATION                                 : 01:44:51.254000000
    NUMBER_OF_FRAMES                         : 150839
    NUMBER_OF_BYTES                          : 4670550897
    _STATISTICS_WRITING_APP                  : mkvmerge v7.4.0 ('Circles') 64bit built on Dec 12 2014 12:19:56
    _STATISTICS_WRITING_DATE_UTC             : 2015-01-10 04:26:58
    _STATISTICS_TAGS                         : BPS DURATION NUMBER_OF_FRAMES NUMBER_OF_BYTES

    Audio #1
    ID                                       : 2
    Format                                   : AC-3
    Format/Info                              : Audio Coding 3
    Mode extension                           : CM (complete main)
    Codec ID                                 : A_AC3
    Duration                                 : 1h 44mn
    Bit rate mode                            : Constant
    Bit rate                                 : 384 Kbps
    Channel(s)                               : 6 channels
    Channel positions                        : Front: L C R, Side: L R, LFE
    Sampling rate                            : 48.0 KHz
    Bit depth                                : 16 bits
    Compression mode                         : Lossy
    Stream size                              : 288 MiB (5%)
    Language                                 : Russian
    Default                                  : Yes
    Forced                                   : No

    Audio #2
    ID                                       : 3
    Format                                   : DTS
    Format/Info                              : Digital Theater Systems
    Codec ID                                 : A_DTS
    Duration                                 : 1h 44mn
    Bit rate mode                            : Constant
    Bit rate                                 : 1 510 Kbps
    Channel(s)                               : 6 channels
    Channel positions                        : Front: L C R, Side: L R, LFE
    Sampling rate                            : 48.0 KHz
    Bit depth                                : 24 bits
    Compression mode                         : Lossy
    Stream size                              : 1.11 GiB (19%)
    Language                                 : English
    Default                                  : No
    Forced                                   : No

    Menu
    00:00:00.000                             : en:00:00:00.000
    00:07:39.000                             : en:00:07:39.000
    00:10:13.154                             : en:00:10:13.154
    00:13:22.218                             : en:00:13:22.218
    00:21:03.888                             : en:00:21:03.888
    00:26:13.238                             : en:00:26:13.238
    00:29:55.585                             : en:00:29:55.585
    00:34:36.157                             : en:00:34:36.157
    00:40:55.244                             : en:00:40:55.244
    00:45:06.495                             : en:00:45:06.495
    00:52:01.994                             : en:00:52:01.994
    00:58:16.243                             : en:00:58:16.243
    01:05:12.992                             : en:01:05:12.992
    01:09:17.236                             : en:01:09:17.236
    01:14:57.535                             : en:01:14:57.535
    01:19:55.708                             : en:01:19:55.708
    01:25:27.289                             : en:01:25:27.289
    01:30:08.528                             : en:01:30:08.528
    01:35:47.575                             : en:01:35:47.575
    01:39:42.018                             : en:01:39:42.018


    Скриншоты:



    pb.wtf



  • Скачать Царь скорпионов 4: Утерянный трон через торрент http://i63.fastpic.ru/big/2015/0110/af/e6041479a6df0300b9616ce957c88aaf.jpg Скачать фильм Царь скорпионов 4: Утерянный трон через торрент бесплантно в хорошем качестве Описание: В очередной киноленте о «Царе скорпионов» мы увидим как отстранённый от своего трона король-воин Метайюс принимает решение ... 7.4 10 9
    Info! Золотая раздача, скачанное не засчитывается.
    Торрент: Зарегистрирован [2015-02-11 21:26] · скачан: 198 раз
    Статус: √ проверено
    Размер: 7.16 GB
    Как cкачать? Как скачать Царь скорпионов 4: Утерянный трон через торрент | qTorrent

    % Раздел Тема Автор DL S | L
    Фильмы 2015 [DVDrip, WEB-DLRip, HDrip] [ 2.15 GB ] Царь скорпионов 4: Утерянный трон [2015 HDRip "'] coc900 Скачать
    1 | 0
    Фильмы 2015 [DVDrip, WEB-DLRip, HDrip] [ 1.39 GB ] Царь скорпионов 4: Утерянный трон [2015 BDRip MVO] [BaibaKo] GEKADOL Скачать
    1 | 0
    Фильмы без перевода [ 8.21 GB ] Царь скорпионов 4: Утерянный трон [2015 BDRip 1080p Оригинальный] killermax2013 Скачать
    1 | 0
    Фильмы 2015 [DVDrip, WEB-DLRip, HDrip] [ 1.39 GB ] Царь скорпионов 4: Утерянный трон [2015 HDRip Дублированное Ворон Скачать
    1 | 0
    Фильмы [HD 720p, 1080p] (Хороший звук DUB, MVO) [ 5.74 GB ] Царь скорпионов 4: Утерянный трон [2015 BDRip 720p MVO] [BaibaKo] GEKADOL Скачать
    1 | 0

    28-11-2019 20:33  

    Отключить всю рекламу на сайте

      Дорогой пользователь! Огромная просьба, поблагодарите релизера, оцените раздачу и оставьте свои комментарий, если Вы скачали Царь скорпионов 4: Утерянный трон через торрент бесплатно! Внесите свою лепту в развитие PiratBit!
      Комментировать посты могут только пользователи прошедшие не сложную регистрацию
      Показать сообщения:    

      Царь скорпионов 4: Утерянный трон через торрент
      Скачать бесплатно Царь скорпионов 4: Утерянный трон
      Царь скорпионов 4: Утерянный трон скачать торрент
      Царь скорпионов 4: Утерянный трон смотреть онлайн
      Cкачать фильм Царь скорпионов 4: Утерянный трон бесплатно
      Царь скорпионов 4: Утерянный трон скачать торрент в хорошем качестве
      Царь скорпионов 4: Утерянный трон смотреть онлайн бесплатно в хорошем качестве


      Вы не можете начинать темы
      Вы не можете отвечать на сообщения
      Вы не можете редактировать свои сообщения
      Вы не можете удалять свои сообщения
      Вы не можете голосовать в опросах
      Вы не можете прикреплять файлы к сообщениям
      Вы можете скачивать файлы