Ссылка на приватное зеркало всего за 1$. Внимание количество ограничено!!!

iTunes

iTunes

iTunes

1

iTunes

iTunes

iTunes

iTunes

iTunes

30
pack

$ от Little Big

ВАЖНО

!!Акция!!

Alien_RageХит недели

RePack

Resident Evil 21

ИГРА 18+

pack

RePack

jed

!!Акция!!

Alien_Rage

RePack

fifa19

RePack

Assassins Creed: Odyssey

RePack

NEED FOR SPEED™ PAYBACK

4 сезон

9 сезон

Бесстыжие 9 сезон

Все сериалы

все сериалы на PB.wtf

RePack

FAR CRY 5
  

Разделение / Separation (Грег Уайт ) [2014, триллер, WEB-DL 720p, Любительский (двухголосый) [den904, DeadSno] pb.wtf

Разделение через торрент pb.wtf

Размер: 2.54 GB | Добавлен: 5 лет 5 мес. назад | Торрент скачан:21 раз
Скачать  

12-02-2015 02:19 Разделение Скачать торрент  


Разделение / Separation


ИНФОРМАЦИЯ:
Год выпуска:2014
Страна: Канада
Жанр:триллер
Продолжительность01:20:51
Перевод:Любительский (двухголосый) [den904, DeadSno]
Режиссер:Грег Уайт

В Ролях:


Сара Мэннинен (Liz), Питер Стеббингс (Jack), Дмитрий Чеповецкий (Geoffrey), Ал Сапиенца (Elliot), Роб ДеЛеу (Guy), Барбара Гордон (Mom), Аркадия Ли (Angie), Peter Apostolopoulos (Jerk Reporter), Аманда Баркер (911 Operator), Филипп Баклэнд (Griz), Хо Чоу (Topper), Ариса Кокс (Reporter #2)

ОПИСАНИЕ:
В то время, как большой город трепещет от террора серийного убийцы, Джек и Лиз борются за сохранение своей семьи и ради этого переезжают в небольшой жилой комплекс Хэмлок лэйкс, в надежде устранить раздоры в своих отношениях. К несчастью, Хэмлок оказывается не таким уж тихим городком, как они ожидал. И когда заходит солнце, Джек, Лиз и их маленькая дочь Энджи становятся жертвами таинственных местных жителей, желающих разлучить их друг с другом.


ТЕХ.ДАННЫЕ:
Качество: WEB-DL 720p
Формат:MKV
Видео кодек: AVC
Аудио кодек:AC3
Видео: AVC, 1280x548 (2.35:1), 4021 kbps, 23,976 fps, 0,239 bpp
Аудио: AC3 / 5.1 / 48 kHz / 384 kbps / 16 bit

Код:

General
Unique ID                                : 216979456960573132711931673842666850274 (0xA33CB92D51063038B34DB9B084EA47E2)
Complete name                            : D:\Торенты\Разделение.mkv
Format                                   : Matroska
Format version                           : Version 4 / Version 2
File size                                : 2.54 GiB
Duration                                 : 1h 20mn
Overall bit rate                         : 4 495 Kbps
Movie name                               : ripped by HD4FUN.COM
Encoded date                             : UTC 2015-02-11 14:57:06
Writing application                      : mkvmerge v7.2.0 ('On Every Street') 64bit built on Sep 13 2014 15:52:10
Writing library                          : libebml v1.3.0 + libmatroska v1.4.1

Video
ID                                       : 1
Format                                   : AVC
Format/Info                              : Advanced Video Codec
Format profile                           : High@L3.1
Format settings, CABAC                   : No
Format settings, ReFrames                : 2 frames
Codec ID                                 : V_MPEG4/ISO/AVC
Duration                                 : 1h 20mn
Bit rate                                 : 4 021 Kbps
Width                                    : 1 280 pixels
Height                                   : 548 pixels
Display aspect ratio                     : 2.35:1
Frame rate                               : 23.976 fps
Color space                              : YUV
Chroma subsampling                       : 4:2:0
Bit depth                                : 8 bits
Scan type                                : Progressive
Bits/(Pixel*Frame)                       : 0.239
Stream size                              : 2.27 GiB (89%)
Title                                    : ripped by HD4FUN.COM
Language                                 : English
Default                                  : Yes
Forced                                   : No
Color primaries                          : BT.709-5, BT.1361, IEC 61966-2-4, SMPTE RP177
Transfer characteristics                 : BT.709-5, BT.1361
Matrix coefficients                      : BT.709-5, BT.1361, IEC 61966-2-4 709, SMPTE RP177

Audio
ID                                       : 2
Format                                   : AC-3
Format/Info                              : Audio Coding 3
Mode extension                           : CM (complete main)
Codec ID                                 : A_AC3
Duration                                 : 1h 20mn
Bit rate mode                            : Constant
Bit rate                                 : 384 Kbps
Channel(s)                               : 6 channels
Channel positions                        : Front: L C R, Side: L R, LFE
Sampling rate                            : 48.0 KHz
Bit depth                                : 16 bits
Compression mode                         : Lossy
Stream size                              : 222 MiB (9%)
Default                                  : Yes
Forced                                   : No

Скриншоты:


© Оформление by Ворон
pb.wtf



Скачать Разделение через торрент http://pic.kartinco.top/images/6/ordi9.jpg Скачать фильм Разделение через торрент бесплантно в хорошем качестве Е:В то время, как большой город трепещет от террора серийного убийцы, Джек и Лиз борются за сохранение своей семьи и ради этого переезжают ... 10 10 3
Торрент: Зарегистрирован [2015-02-12 02:19] · скачан: 21 раз
Статус: T временная
Размер: 2.54 GB
Как cкачать? Как скачать Разделение через торрент | qTorrent

% Раздел Тема Автор DL S | L
T Фильмы (мультфильмы) cо спонсором показа (Новинки AVI/MKV) [ 4.74 GB ] Насильственное разделение / A Violent Separation [2019 WEB-DL 1080p] MVO [@MUZOBOZ@] bober100 Скачать
1 | 0
T Фильмы (мультфильмы) cо спонсором показа (Новинки AVI/MKV) [ 1.37 GB ] Насильственное разделение / A Violent Separation [2019 WEB-DLRip] MVO [@MUZOBOZ@] bober100 Скачать
1 | 0
T Фильмы (мультфильмы) cо спонсором показа (Новинки AVI/MKV) [ 4.14 GB ] Насильственное разделение / A Violent Separation [2019 WEB-DL 720p] MVO [@MUZOBOZ@] bober100 Скачать
1 | 0

28-11-2019 20:33  

Отключить всю рекламу на сайте

    Дорогой пользователь! Огромная просьба, поблагодарите релизера, оцените раздачу и оставьте свои комментарий, если Вы скачали Разделение через торрент бесплатно! Внесите свою лепту в развитие PiratBit!
    Комментировать посты могут только пользователи прошедшие не сложную регистрацию
    Показать сообщения:    

    Разделение через торрент
    Скачать бесплатно Разделение
    Разделение скачать торрент
    Разделение смотреть онлайн
    Cкачать фильм Разделение бесплатно
    Разделение скачать торрент в хорошем качестве
    Разделение смотреть онлайн бесплатно в хорошем качестве


    Вы не можете начинать темы
    Вы не можете отвечать на сообщения
    Вы не можете редактировать свои сообщения
    Вы не можете удалять свои сообщения
    Вы не можете голосовать в опросах
    Вы не можете прикреплять файлы к сообщениям
    Вы можете скачивать файлы