Ссылка на приватное зеркало нашего сайта всего за 1$. Внимание количество ограничено!!!

2 сезон

iTunes

1 сезон

1

iTunes

iTunes

iTunes

1 сезон

RePack

30

ИГРА 18+

pack

ВАЖНО

!!Акция!!

Alien_RageХит недели

RePack

MK11
pack

Забери бонус

RePack

jed

!!Акция!!

Alien_Rage

RePack

fifa19

RePack

Assassins Creed: Odyssey

RePack

NEED FOR SPEED™ PAYBACK

4 сезон

9 сезон

Бесстыжие 9 сезон

Все сериалы

все сериалы на PB.wtf

RePack

FAR CRY 5
  

Такая работа / Человеческий фактор / Сезон: 1 / Серии 1-80 из 80 (Владимир Койфман, Сергей Мезенцев, Дмитрий Изместьев) [2015, Россия, детектив, SATRip) pb.wtf

Такая работа через торрент pb.wtf

Размер: 43.95 GB | Добавлен: 4 года 7 мес. назад | Торрент скачан:106 раз
Скачать  

12-02-2015 07:23 Такая работа Скачать торрент  

Такая работа / Человеческий фактор


  • Год выпуска: 2015
  • Страна: Россия
  • Жанр: детектив
  • Продолжительность: 00:39:30 (Серия)
  • Перевод: Не требуется
  • Режиссер: Владимир Койфман, Сергей Мезенцев, Дмитрий Изместьев
  • В ролях:

    Александр Саюталин (Володин), Оксана Базилевич (Калитникова), Дмитрий Паламарчук (Филиппов), Максим Меркулов (Лернер), Алексей Митин (Ильинский), Ирина Шеянова, Александр Большаков, Сергей Кудрявцев, Антон Мамин (Дружко), Елизавета Карнаух (Мария Дудина), Владимир Мельников (Виталий Николаевич), Михаил Сидаш (Иван Цветков)


  • Команда молодых оперативников убойного отдела ГУВД - капитаны Филиппов, Лернер, Ильинский и старший лейтенант Стрельникова расследуют самые громкие преступления. Они молоды и амбициозны, и они сами выбрали ТАКУЮ РАБОТУ. Каждая серия - это новое дело, новый вызов и новая захватывающая история. Зрители проживут с героями сериала один год. Год, за который Филиппов, Лернер, Ильинский и Стрельникова превратятся из молодых оперативников в опытных профессионалов. Год, который многое изменит в их жизни, избавит от романтических иллюзий, заставит по-новому взглянуть на работу, которую они выбрали. Через год они станут другими людьми, но неизменным останется одно - их дружба и девиз мушкетеров: один за всех и все за одного.
  • Рейтинг:



  • Качество: SATRip
  • Формат: :AVI
  • Видео кодек: XviD
  • Аудио кодек: MP3
  • Видео: 720x400 (16:9), 1799 kbps, 25 fps, 0,250 bpp
  • Аудио: 2.0 / 48 kHz / 128 kbps

    Код:

    Внимание! Раздача ведётся путём добавления новых серий; при каждом добавлении создаётся новый торрент. Чтобы начать докачку новой серии, пользователям необходимо сделать следующее:
    (1) остановить скачивание,
    (2) удалить старый торрент у себя из клиента (старые серии удалять не надо),
    (3) скачать новый торрент и запустить его у себя в клиенте вместо старого, при этом указать клиенту путь в старую папку куда и должно происходить скачивание новых серий.
    Ваш клиент при этом должен произвести хеширование (проверку) старой папки (если не производит сам - помогите ему сделать это), и будет докачивать только те серии которых у вас ещё нет. Старые серии при этом не удаляются, а продолжают раздаваться!
    Eсли вы уже удалили старые серии, то предотвратить повторную закачку старых серий можно, отжав галочку в соответствующих местах при запуске нового торрента. По возможности, желательно не удалять старые серии как можно дольше чтобы релизёр не столько продолжал раздавать старые серии, а смог сконцентрироваться на новых.


    Код:

    General
    Complete name                            : H:\Такая работа.SATRip\Tak.rabota.57.avi
    Format                                   : AVI
    Format/Info                              : Audio Video Interleave
    File size                                : 548 MiB
    Duration                                 : 39mn 30s
    Overall bit rate                         : 1 937 Kbps
    Writing application                      : VirtualDubMod 1.5.10.3 | www.virtualdub-fr.org || (build 2550/release)
    Writing library                          : VirtualDubMod build 2550/release

    Video
    ID                                       : 0
    Format                                   : MPEG-4 Visual
    Format profile                           : Advanced Simple@L5
    Format settings, BVOP                    : 2
    Format settings, QPel                    : No
    Format settings, GMC                     : No warppoints
    Format settings, Matrix                  : Default (MPEG)
    Codec ID                                 : XVID
    Codec ID/Hint                            : XviD
    Duration                                 : 39mn 30s
    Bit rate                                 : 1 800 Kbps
    Width                                    : 720 pixels
    Height                                   : 400 pixels
    Display aspect ratio                     : 16:9
    Frame rate                               : 25.000 fps
    Color space                              : YUV
    Chroma subsampling                       : 4:2:0
    Bit depth                                : 8 bits
    Scan type                                : Progressive
    Compression mode                         : Lossy
    Bits/(Pixel*Frame)                       : 0.250
    Stream size                              : 509 MiB (93%)
    Writing library                          : XviD 1.2.1 (UTC 2008-12-04)

    Audio
    ID                                       : 1
    Format                                   : MPEG Audio
    Format version                           : Version 1
    Format profile                           : Layer 3
    Mode                                     : Joint stereo
    Codec ID                                 : 55
    Codec ID/Hint                            : MP3
    Duration                                 : 39mn 30s
    Bit rate mode                            : Constant
    Bit rate                                 : 128 Kbps
    Channel(s)                               : 2 channels
    Sampling rate                            : 48.0 KHz
    Compression mode                         : Lossy
    Stream size                              : 36.2 MiB (7%)
    Alignment                                : Aligned on interleaves
    Interleave, duration                     : 40 ms (1.00 video frame)
    Interleave, preload duration             : 504 ms
    Writing library                          : LAME3.99r
    Encoding settings                        : -m j -V 4 -q 9 -lowpass 17 -b 128


    Скриншоты:
    скриншот   скриншот   скриншот   скриншот   скриншот   скриншот  
    скриншот  

    Раздача ведётся путём добавления новых серий. Добавлена 80 серия (04.03.2016).Просьба перекачать торрент файл.

    pb.wtf



  • Скачать Такая работа через торрент http://i73.fastpic.ru/big/2016/0122/61/6de7bc50a3f35169353a151e0b268161.jpg Скачать фильм Такая работа через торрент бесплантно в хорошем качестве qw.png Команда молодых оперативников убойного отдела ГУВД - капитаны Филиппов, Лернер, Ильинский и старший лейтенант Стрельникова ... 8.8 10 19
    Info! Золотая раздача, скачанное не засчитывается.
    Торрент: Зарегистрирован [2016-03-04 01:07] · скачан: 106 раз
    Статус: √ проверено
    Размер: 43.95 GB
    Как cкачать? Как скачать Такая работа через торрент | qTorrent

    28-11-2019 20:33  

    Отключить всю рекламу на сайте

    20-06-2015 15:31 Такая работа Скачать торрент  

    Обновите пожалуйста ! pb.wtf



    16-01-2016 08:22 Такая работа Скачать торрент  

    Обновлять буду раз в неделю!! pb.wtf



    22-01-2016 01:20 Такая работа Скачать торрент  

    Обновленоpb.wtf



    04-03-2016 01:08 Такая работа Скачать торрент  

    Обновлено! pb.wtf



      Дорогой пользователь! Огромная просьба, поблагодарите релизера, оцените раздачу и оставьте свои комментарий, если Вы скачали Такая работа через торрент бесплатно! Внесите свою лепту в развитие PiratBit!
      Комментировать посты могут только пользователи прошедшие не сложную регистрацию
      Показать сообщения:    

      Такая работа через торрент
      Скачать бесплатно Такая работа
      Такая работа скачать торрент
      Такая работа смотреть онлайн
      Cкачать фильм Такая работа бесплатно
      Такая работа скачать торрент в хорошем качестве
      Такая работа смотреть онлайн бесплатно в хорошем качестве


      Вы не можете начинать темы
      Вы не можете отвечать на сообщения
      Вы не можете редактировать свои сообщения
      Вы не можете удалять свои сообщения
      Вы не можете голосовать в опросах
      Вы не можете прикреплять файлы к сообщениям
      Вы можете скачивать файлы