Ссылка на приватное зеркало нашего сайта всего за 1$. Внимание количество ограничено!!!

2 сезон

iTunes

1 сезон

1

iTunes

iTunes

iTunes

1 сезон

RePack

30

ИГРА 18+

pack

ВАЖНО

!!Акция!!

Alien_RageХит недели

RePack

MK11
pack

Забери бонус

RePack

jed

!!Акция!!

Alien_Rage

RePack

fifa19

RePack

Assassins Creed: Odyssey

RePack

NEED FOR SPEED™ PAYBACK

4 сезон

9 сезон

Бесстыжие 9 сезон

Все сериалы

все сериалы на PB.wtf

RePack

FAR CRY 5
  

Голоса / The Voices (Маржан Сатрапи / Marjane Satrapi) [2014, США, Германия, триллер, комедия, криминал, WEB-DLRip-AVC] DVO [RAIM & NASTR] + ENG pb.wtf

Голоса через торрент pb.wtf

Размер: 2.16 GB | Добавлен: 5 лет 8 мес. назад | Торрент скачан:79 раз
Скачать  

13-02-2015 03:41 Голоса Скачать торрент  

Голоса / The Voices


  • Год выпуска: 2014
  • Страна: США, Германия
  • Жанр: триллер, комедия, криминал
  • Продолжительность: 01:43:38
  • Перевод: Любительский (двухголосый) [RAIM & NASTR]
  • Субтитры: английские,английские
  • Режиссер: Маржан Сатрапи / Marjane Satrapi
  • В ролях:

    Райан Рейнольдс (Jerry Hickfang / Mr. Whiskers, озвучка / Bosco, озвучка / Deer, озвучка / Bunny Monkey, озвучка), Джемма Артертон (Fiona), Анна Кендрик (Lisa), Джеки Уивер (Dr. Warren), Ади Шанкар (Trendy John), Ricardia Bramley (Sheila Hammer), Пол Брайтвелл (Mack), Aaron Kissiov (Jerry Hickfang (child)), Валери Кох (Jerry's mother), Alessa Kordeck (Sheryl), Гулливер МакГрат (Teenage Jerry), Михаэль Пинк (Jesus)

  • Описание:
    Джерри - оптимистичный, приятный парень, но он душевно болен и в последнее время не принимал назначенные ему препараты. В своих галлюцинациях он видит, как его кот предлагает ему стать серийным убийцей, в то время как его пес пытается убедить его, что он хороший человек. Начав вновь принимать препараты, он переживает короткие периоды ясности, в которые понимает, что в его жизни гораздо больше насилия, чем он себе представлял.
  • Рейтинг:



  • Качество: WEB-DLRip-AVC
  • Формат: :MKV
  • Видео кодек: AVC
  • Аудио кодек: AC3
  • Видео: 1024x432 (2.35:1), 2345 kbps, 23,976 fps, 0,221 bpp
  • Аудио №1: русский / 2.0 / 48 kHz / 192 kbps / 16 bit ||
  • Аудио №2: английский / 5.1 / 48 kHz / 384 kbps / 16 bit
  • Релиз от: GEKADOL

    Код:

    General
    Unique ID                                : 203490511711975927953951419205316873285 (0x9916D8D45E314CE4B331709F85098C45)
    Complete name                            : D:\Фильмы\The.Voices.2014.7L2.Eng.WEB-DL.AVC.H264.mkv
    Format                                   : Matroska
    Format version                           : Version 4 / Version 2
    File size                                : 2.16 GiB
    Duration                                 : 1h 43mn
    Overall bit rate                         : 2 981 Kbps
    Encoded date                             : UTC 2010-02-22 21:41:31
    Writing application                      : mkvmerge v5.9.0 ('On The Loose') built on Dec  9 2012 15:37:01
    Writing library                          : libebml v1.3.0 + libmatroska v1.4.0

    Video
    ID                                       : 1
    Format                                   : AVC
    Format/Info                              : Advanced Video Codec
    Format profile                           : High@L1.3
    Format settings, CABAC                   : No
    Format settings, ReFrames                : 1 frame
    Format settings, GOP                     : M=1, N=12
    Muxing mode                              : Header stripping
    Codec ID                                 : V_MPEG4/ISO/AVC
    Duration                                 : 1h 43mn
    Bit rate                                 : 2 346 Kbps
    Width                                    : 1 024 pixels
    Height                                   : 432 pixels
    Display aspect ratio                     : 2.35:1
    Frame rate mode                          : Variable
    Frame rate                               : 23.976 fps
    Color space                              : YUV
    Chroma subsampling                       : 4:2:0
    Bit depth                                : 8 bits
    Scan type                                : Progressive
    Bits/(Pixel*Frame)                       : 0.221
    Stream size                              : 1.70 GiB (79%)
    Language                                 : English
    Default                                  : Yes
    Forced                                   : No

    Audio #1
    ID                                       : 2
    Format                                   : AC-3
    Format/Info                              : Audio Coding 3
    Mode extension                           : CM (complete main)
    Muxing mode                              : Header stripping
    Codec ID                                 : A_AC3
    Duration                                 : 1h 43mn
    Bit rate mode                            : Constant
    Bit rate                                 : 192 Kbps
    Channel(s)                               : 2 channels
    Channel positions                        : Front: L R
    Sampling rate                            : 48.0 KHz
    Bit depth                                : 16 bits
    Compression mode                         : Lossy
    Stream size                              : 142 MiB (6%)
    Language                                 : Russian
    Default                                  : Yes
    Forced                                   : No

    Audio #2
    ID                                       : 3
    Format                                   : AC-3
    Format/Info                              : Audio Coding 3
    Mode extension                           : CM (complete main)
    Muxing mode                              : Header stripping
    Codec ID                                 : A_AC3
    Duration                                 : 1h 43mn
    Bit rate mode                            : Constant
    Bit rate                                 : 384 Kbps
    Channel(s)                               : 6 channels
    Channel positions                        : Front: L C R, Side: L R, LFE
    Sampling rate                            : 48.0 KHz
    Bit depth                                : 16 bits
    Compression mode                         : Lossy
    Stream size                              : 285 MiB (13%)
    Language                                 : English
    Default                                  : No
    Forced                                   : No

    Text #1
    ID                                       : 4
    Format                                   : UTF-8
    Codec ID                                 : S_TEXT/UTF8
    Codec ID/Info                            : UTF-8 Plain Text
    Language                                 : English
    Default                                  : No
    Forced                                   : No

    Text #2
    ID                                       : 5
    Format                                   : UTF-8
    Codec ID                                 : S_TEXT/UTF8
    Codec ID/Info                            : UTF-8 Plain Text
    Language                                 : English
    Default                                  : No
    Forced                                   : No

    Menu
    00:00:00.000                             : en:Chapter 1
    00:04:55.000                             : en:Chapter 2
    00:15:15.000                             : en:Chapter 3
    00:25:05.000                             : en:Chapter 4
    00:35:09.000                             : en:Chapter 5
    00:44:58.000                             : en:Chapter 6
    00:54:13.000                             : en:Chapter 7
    01:04:09.000                             : en:Chapter 8
    01:14:16.000                             : en:Chapter 9
    01:24:46.000                             : en:Chapter 10
    01:35:20.000                             : en:Chapter 11




    Скриншоты:



    pb.wtf



  • Скачать Голоса через торрент http://i64.fastpic.ru/big/2015/0213/f6/7a5289e29c3a1a193cad7229b40522f6.jpg Скачать фильм Голоса через торрент бесплантно в хорошем качестве Описание: Джерри - оптимистичный, приятный парень, но он душевно болен и в последнее время не принимал назначенные ему препараты. В своих ... 7.8 10 4
    Торрент: Зарегистрирован [2015-02-13 03:41] · скачан: 79 раз
    Статус: √ проверено
    Размер: 2.16 GB
    Как cкачать? Как скачать Голоса через торрент | qTorrent

    28-11-2019 20:33  

    Отключить всю рекламу на сайте

      Дорогой пользователь! Огромная просьба, поблагодарите релизера, оцените раздачу и оставьте свои комментарий, если Вы скачали Голоса через торрент бесплатно! Внесите свою лепту в развитие PiratBit!
      Комментировать посты могут только пользователи прошедшие не сложную регистрацию
      Показать сообщения:    

      Голоса через торрент
      Скачать бесплатно Голоса
      Голоса скачать торрент
      Голоса смотреть онлайн
      Cкачать фильм Голоса бесплатно
      Голоса скачать торрент в хорошем качестве
      Голоса смотреть онлайн бесплатно в хорошем качестве


      Вы не можете начинать темы
      Вы не можете отвечать на сообщения
      Вы не можете редактировать свои сообщения
      Вы не можете удалять свои сообщения
      Вы не можете голосовать в опросах
      Вы не можете прикреплять файлы к сообщениям
      Вы можете скачивать файлы