Ссылка на приватное зеркало нашего сайта всего за 1$. Внимание количество ограничено!!!

2 сезон

iTunes

1 сезон

1

iTunes

iTunes

iTunes

1 сезон

RePack

30

ИГРА 18+

pack

ВАЖНО

!!Акция!!

Alien_RageХит недели

RePack

MK11
pack

Забери бонус

RePack

jed

!!Акция!!

Alien_Rage

RePack

fifa19

RePack

Assassins Creed: Odyssey

RePack

NEED FOR SPEED™ PAYBACK

4 сезон

9 сезон

Бесстыжие 9 сезон

Все сериалы

все сериалы на PB.wtf

RePack

FAR CRY 5
  

Год в Тоскане / Сезон: 1 / Серии 1-16 из 16 (Андрей Селиванов) [2015, Россия, мелодрама, SATRip) pb.wtf

Год в Тоскане через торрент pb.wtf

Размер: 8.06 GB | Добавлен: 5 лет 8 мес. назад | Торрент скачан:284 раза
Скачать  

13-02-2015 05:13 Год в Тоскане Скачать торрент  

Год в Тоскане


  • Год выпуска: 2015
  • Страна: Россия
  • Жанр: мелодрама
  • Продолжительность: 00:44:18 (Серия)
  • Перевод: Не требуется

  • Режиссер: Андрей Селиванов
  • В ролях:

    Екатерина Кузнецова (Рита), Михаил Пшеничный (Владимир), Елена Корикова (Яна), Наталья Бардо (Аня), Константин Соловьев (Петр), Николай Чиндяйкин (Николай Фарбей), Татьяна Федоровская (Соня), Виталий Емашов (Глеб), Глафира Тарханова (Марина), Михаил Гаврилов (Илья), Елена Николаева (Варвара), Евгения Каверау (Маша)

  • Описание:
    Счастливые Рита и Илья готовятся к свадьбе. Илья, талантливый архитектор, вечно погруженный в творчество, проектирует виллу в Тоскане для семейства миллионеров Фарбеев. Рита тем временем обеспечивает материальную базу для творческих исканий своего жениха: тоже закончив архитектурный, она на износ работает в дизайнерском агентстве.
    За день до свадьбы Рита случайно спасает от смерти известного актера Майка, вытащив его почти из-под колес маршрутки. Пока героиня помогает капризной звезде прийти в себя, ее жених погибает в ДТП. Безутешная Рита отправляется в Тоскану, чтобы закончить дело ее любимого человека.
  • Рейтинг:



  • Качество: SATRip
  • Формат: :AVI
  • Видео кодек: XviD
  • Аудио кодек: MP3
  • Видео: 720x400 (16:9), 1399 kbps, 25 fps, 0,194 bpp
  • Аудио: 2.0 / 48 kHz / 192 kbps /
  • Релиз от: GEKADOL

    Код:

    General
    Complete name                            : D:\Фильмы\Год в Тоскане (2015)\Год в Тоскане.(16.seriya.END).2015.XviD.SATRip.by.simka.avi
    Format                                   : AVI
    Format/Info                              : Audio Video Interleave
    File size                                : 507 MiB
    Duration                                 : 44mn 18s
    Overall bit rate                         : 1 601 Kbps
    Writing application                      : VirtualDubMod 1.5.10.3 | www.virtualdub-fr.org || (build 2550/release)
    Writing library                          : VirtualDubMod build 2550/release

    Video
    ID                                       : 0
    Format                                   : MPEG-4 Visual
    Format profile                           : Advanced Simple@L5
    Format settings, BVOP                    : 1
    Format settings, QPel                    : No
    Format settings, GMC                     : No warppoints
    Format settings, Matrix                  : Default (MPEG)
    Codec ID                                 : XVID
    Codec ID/Hint                            : XviD
    Duration                                 : 44mn 18s
    Bit rate                                 : 1 400 Kbps
    Width                                    : 720 pixels
    Height                                   : 400 pixels
    Display aspect ratio                     : 16:9
    Frame rate                               : 25.000 fps
    Color space                              : YUV
    Chroma subsampling                       : 4:2:0
    Bit depth                                : 8 bits
    Scan type                                : Progressive
    Compression mode                         : Lossy
    Bits/(Pixel*Frame)                       : 0.194
    Stream size                              : 444 MiB (87%)
    Writing library                          : XviD 1.2.1 (UTC 2008-12-04)

    Audio
    ID                                       : 1
    Format                                   : MPEG Audio
    Format version                           : Version 1
    Format profile                           : Layer 3
    Codec ID                                 : 55
    Codec ID/Hint                            : MP3
    Duration                                 : 44mn 18s
    Bit rate mode                            : Constant
    Bit rate                                 : 192 Kbps
    Channel(s)                               : 2 channels
    Sampling rate                            : 48.0 KHz
    Compression mode                         : Lossy
    Stream size                              : 60.8 MiB (12%)
    Alignment                                : Aligned on interleaves
    Interleave, duration                     : 40 ms (1.00 video frame)
    Interleave, preload duration             : 504 ms
    Writing library                          : LAME3.99r
    Encoding settings                        : -m s -V 4 -q 2 -lowpass 18.6 -b 192


    Скриншоты:



    pb.wtf



  • Скачать Год в Тоскане через торрент http://i58.fastpic.ru/big/2015/0213/9f/568d6ffb33e649de1055222ad56ddf9f.jpg Скачать фильм Год в Тоскане через торрент бесплантно в хорошем качестве Описание: Счастливые Рита и Илья готовятся к свадьбе. Илья, талантливый архитектор, вечно погруженный в творчество, проектирует виллу в ... 10 10 9
    Info! Золотая раздача, скачанное не засчитывается.
    Торрент: Зарегистрирован [2015-02-13 05:13] · скачан: 284 раз
    Статус: √ проверено
    Размер: 8.06 GB
    Как cкачать? Как скачать Год в Тоскане через торрент | qTorrent

    28-11-2019 20:33  

    Отключить всю рекламу на сайте

      Дорогой пользователь! Огромная просьба, поблагодарите релизера, оцените раздачу и оставьте свои комментарий, если Вы скачали Год в Тоскане через торрент бесплатно! Внесите свою лепту в развитие PiratBit!
      Комментировать посты могут только пользователи прошедшие не сложную регистрацию
      Показать сообщения:    

      Год в Тоскане через торрент
      Скачать бесплатно Год в Тоскане
      Год в Тоскане скачать торрент
      Год в Тоскане смотреть онлайн
      Cкачать фильм Год в Тоскане бесплатно
      Год в Тоскане скачать торрент в хорошем качестве
      Год в Тоскане смотреть онлайн бесплатно в хорошем качестве


      Вы не можете начинать темы
      Вы не можете отвечать на сообщения
      Вы не можете редактировать свои сообщения
      Вы не можете удалять свои сообщения
      Вы не можете голосовать в опросах
      Вы не можете прикреплять файлы к сообщениям
      Вы можете скачивать файлы