2 сезон

iTunes

1 сезон

1

iTunes

iTunes

iTunes

1 сезон

RePack

30

ИГРА 18+

pack

ВАЖНО

!!Акция!!

Alien_RageХит недели

RePack

MK11
pack

Забери бонус

RePack

jed

!!Акция!!

Alien_Rage

RePack

fifa19

RePack

Assassins Creed: Odyssey

RePack

NEED FOR SPEED™ PAYBACK

4 сезон

9 сезон

Бесстыжие 9 сезон

Все сериалы

все сериалы на PB.wtf

RePack

FAR CRY 5
  

Оставшиеся / The Remaining (Кэйси Ла Скала ) [2014, ужасы, триллер, BDRip 1080p, Профессиональный многоголосый [Лицензия] pb.wtf

Оставшиеся через торрент pb.wtf

Размер: 10.12 GB | Добавлен: 5 лет 8 мес. назад | Торрент скачан:80 раз
Скачать  

13-02-2015 08:08 Оставшиеся Скачать торрент  


Оставшиеся / The Remaining


ИНФОРМАЦИЯ:
Год выпуска:2014
Страна: США
Жанр:ужасы, триллер
Продолжительность01:27:50
Перевод:Профессиональный многоголосый [Лицензия]
Субтитры: английские
Режиссер:Кэйси Ла Скала

В Ролях:


Алекса ПенаВега (Skylar), Шон Сайпос (Jack), Джонни Пакар (Tommy), Италиа Риччи (Allison), Брайан Дечарт (Dan), Лиз Е. Морган (Sam), Джон Пайпер-Фергюсон (Pastor Shay), Ким Пачеко (Nurse Rachel), Хейли Ловитт (Southern Belle), Эрин Мерфи (Lindsey), Jennifer Brown Andersen (Relief Center Survivor), Rochelle Aycoth (Wedding Guest)

ОПИСАНИЕ:
Несколько молодых людей собираются вместе, чтобы отпраздновать свадьбу двух своих друзей. Во время празднования происходит череда катастрофических событий, которая превращает празднование в борьбу не на жизнь, а на смерть. Герои отчаянно сражаются за свое убежище, за свои жизни с врагом, которого они никогда не встречали...


ТЕХ.ДАННЫЕ:
Качество: BDRip 1080p
Формат:MKV
Видео кодек: AVC
Аудио кодек:AC3, DTS
Видео: AVC, 1920x1040 (16:9), 14277 kbps, 23,976 fps, 0,298 bpp
Аудио №1: русский / AC3 / 5.1 / 48 kHz / 384 kbps / 16 bit ||
Аудио №2: английский / DTS / 5.1 / 48 kHz / 1510 kbps / 24 bit
Навигация по главам: есть

Код:

General
Unique ID                                : 253325647491474011165929177815033265084 (0xBE94BEB9887DD4C6A0ECC9EF048F3BBC)
Complete name                            : D:\Торенты\Ostavshiesja.2014.P.BDRip.1080p.mkv
Format                                   : Matroska
Format version                           : Version 4 / Version 2
File size                                : 10.1 GiB
Duration                                 : 1h 27mn
Overall bit rate                         : 16.5 Mbps
Encoded date                             : UTC 2015-02-07 15:01:05
Writing application                      : mkvmerge v7.3.0 ('Nouages') 64bit built on Oct 22 2014 18:53:34
Writing library                          : libebml v1.3.0 + libmatroska v1.4.1

Video
ID                                       : 1
Format                                   : AVC
Format/Info                              : Advanced Video Codec
Format profile                           : High@L4.1
Format settings, CABAC                   : Yes
Format settings, ReFrames                : 4 frames
Codec ID                                 : V_MPEG4/ISO/AVC
Duration                                 : 1h 27mn
Bit rate                                 : 14.3 Mbps
Width                                    : 1 920 pixels
Height                                   : 1 040 pixels
Display aspect ratio                     : 16:9
Frame rate                               : 23.976 fps
Color space                              : YUV
Chroma subsampling                       : 4:2:0
Bit depth                                : 8 bits
Scan type                                : Progressive
Bits/(Pixel*Frame)                       : 0.298
Stream size                              : 8.76 GiB (87%)
Writing library                          : x264 core 142 r2491kMod 24e4fed
Encoding settings                        : cabac=1 / ref=4 / deblock=1:-3:-3 / analyse=0x3:0x133 / me=umh / subme=10 / psy=1 / fade_compensate=0.00 / psy_rd=1.01:0.00 / mixed_ref=1 / me_range=24 / chroma_me=1 / trellis=2 / 8x8dct=1 / cqm=0 / deadzone=21,11 / fast_pskip=0 / chroma_qp_offset=-2 / threads=12 / lookahead_threads=2 / sliced_threads=0 / nr=0 / decimate=0 / interlaced=0 / bluray_compat=0 / constrained_intra=0 / fgo=0 / bframes=9 / b_pyramid=2 / b_adapt=2 / b_bias=0 / direct=3 / weightb=1 / open_gop=0 / weightp=2 / keyint=250 / keyint_min=23 / scenecut=40 / intra_refresh=0 / rc=crf / mbtree=0 / crf=17.3000 / qcomp=0.70 / qpmin=0 / qpmax=69 / qpstep=4 / ip_ratio=1.20 / pb_ratio=1.10 / aq=1:0.79
Language                                 : English
Default                                  : Yes
Forced                                   : Yes

Audio #1
ID                                       : 2
Format                                   : AC-3
Format/Info                              : Audio Coding 3
Mode extension                           : CM (complete main)
Codec ID                                 : A_AC3
Duration                                 : 1h 27mn
Bit rate mode                            : Constant
Bit rate                                 : 384 Kbps
Channel(s)                               : 6 channels
Channel positions                        : Front: L C R, Side: L R, LFE
Sampling rate                            : 48.0 KHz
Bit depth                                : 16 bits
Compression mode                         : Lossy
Stream size                              : 241 MiB (2%)
Language                                 : Russian
Default                                  : Yes
Forced                                   : Yes

Audio #2
ID                                       : 3
Format                                   : DTS
Format/Info                              : Digital Theater Systems
Codec ID                                 : A_DTS
Duration                                 : 1h 27mn
Bit rate mode                            : Constant
Bit rate                                 : 1 510 Kbps
Channel(s)                               : 6 channels
Channel positions                        : Front: L C R, Side: L R, LFE
Sampling rate                            : 48.0 KHz
Bit depth                                : 24 bits
Compression mode                         : Lossy
Stream size                              : 949 MiB (9%)
Language                                 : English
Default                                  : No
Forced                                   : No

Text #1
ID                                       : 4
Format                                   : UTF-8
Codec ID                                 : S_TEXT/UTF8
Codec ID/Info                            : UTF-8 Plain Text
Language                                 : English
Default                                  : No
Forced                                   : No

Text #2
ID                                       : 5
Format                                   : UTF-8
Codec ID                                 : S_TEXT/UTF8
Codec ID/Info                            : UTF-8 Plain Text
Language                                 : English
Default                                  : No
Forced                                   : No

Menu
00:00:00.000                             : en:00:00:00.000
00:06:06.616                             : en:00:06:06.616
00:10:38.972                             : en:00:10:38.972
00:16:27.069                             : en:00:16:27.069
00:26:16.658                             : en:00:26:16.658
00:32:54.055                             : en:00:32:54.055
00:42:45.438                             : en:00:42:45.438
00:46:11.310                             : en:00:46:11.310
00:49:39.977                             : en:00:49:39.977
00:55:47.135                             : en:00:55:47.135
00:57:37.287                             : en:00:57:37.287
01:02:49.641                             : en:01:02:49.641
01:07:54.696                             : en:01:07:54.696
01:11:14.437                             : en:01:11:14.437
01:15:49.295                             : en:01:15:49.295
01:20:33.954                             : en:01:20:33.954

Скриншоты:


© Оформление by Ворон
pb.wtf



Скачать Оставшиеся через торрент http://pic.kartinco.top/images/6/ordi9.jpg Скачать фильм Оставшиеся через торрент бесплантно в хорошем качестве Е:Несколько молодых людей собираются вместе, чтобы отпраздновать свадьбу двух своих друзей. Во время празднования происходит череда ... 7 10 3
Торрент: Зарегистрирован [2015-02-13 08:08] · скачан: 80 раз
Статус: √ проверено
Размер: 10.12 GB
Как cкачать? Как скачать Оставшиеся через торрент | qTorrent

% Раздел Тема Автор DL S | L
T Релизы по Парсеру [Игры, Сериалы и Фильмы и другое...] [ 1.48 GB ] Останки / The Remains [2016 DVDRip] VO bober100 Скачать
1 | 0
Фильмы 2014 [DVDrip, WEB-DLRip, HDrip] [ 2.18 GB ] Оставшийся / The Remaining [2014 BDRip-AVC Профессиональное [лицензия] Ворон Скачать
1 | 0
Фильмы 2014 [DVDrip, WEB-DLRip, HDrip] [ 1.37 GB ] Оставшийся / The Remaining [2014 HDRip Профессиональное [лицензия] Ворон Скачать
1 | 0
Фильмы [HD 720p, 1080p] (Хороший звук DUB, MVO) [ 9.89 GB ] Оставшиеся / The Remaining [2014 BDRip 1080p Ворон Скачать
1 | 0
Фильмы 2014 [DVDrip, WEB-DLRip, HDrip] [ 1.37 GB ] Оставшийся / The Remaining [2014 HDRip многоголосый [online movies] Ворон Скачать
1 | 0
T Фильмы [HD 720p, 1080p] (Звук Cam, VO, DVO) [ 9.77 GB ] Оставшийся / The Remaining [2014 BDRip 1080p Любительский [den904 DeadSno] Ворон Скачать
1 | 0
T Фильмы 2011 [ 1.37 GB ] Останки / Remains / Steve Niles' Remains [2011 HDRip MVO] oleg8 Скачать
1 | 0

28-11-2019 20:33  

Отключить всю рекламу на сайте

    Дорогой пользователь! Огромная просьба, поблагодарите релизера, оцените раздачу и оставьте свои комментарий, если Вы скачали Оставшиеся через торрент бесплатно! Внесите свою лепту в развитие PiratBit!
    Комментировать посты могут только пользователи прошедшие не сложную регистрацию
    Показать сообщения:    

    Оставшиеся через торрент
    Скачать бесплатно Оставшиеся
    Оставшиеся скачать торрент
    Оставшиеся смотреть онлайн
    Cкачать фильм Оставшиеся бесплатно
    Оставшиеся скачать торрент в хорошем качестве
    Оставшиеся смотреть онлайн бесплатно в хорошем качестве


    Вы не можете начинать темы
    Вы не можете отвечать на сообщения
    Вы не можете редактировать свои сообщения
    Вы не можете удалять свои сообщения
    Вы не можете голосовать в опросах
    Вы не можете прикреплять файлы к сообщениям
    Вы можете скачивать файлы