Ссылка на приватное зеркало нашего сайта всего за 1$. Внимание количество ограничено!!!

2 сезон

iTunes

1 сезон

1

iTunes

iTunes

iTunes

1 сезон

RePack

30

ИГРА 18+

pack

ВАЖНО

!!Акция!!

Alien_RageХит недели

RePack

MK11
pack

Забери бонус

RePack

jed

!!Акция!!

Alien_Rage

RePack

fifa19

RePack

Assassins Creed: Odyssey

RePack

NEED FOR SPEED™ PAYBACK

4 сезон

9 сезон

Бесстыжие 9 сезон

Все сериалы

все сериалы на PB.wtf

RePack

FAR CRY 5
  

Голоса / The Voices (Маржан Сатрапи ) [2014, триллер, комедия, криминал, WEB-DLRip, Любительский (двухголосый)[RAIM & NASTR] pb.wtf

Голоса через торрент pb.wtf

Размер: 1.34 GB | Добавлен: 5 лет 8 мес. назад | Торрент скачан:172 раза
Скачать  

13-02-2015 08:12 Голоса Скачать торрент  


Голоса / The Voices


Информация:
Год выпуска:2014
Страна: США, Германия
Жанр:триллер, комедия, криминал
Продолжительность01:43:38
Перевод:Любительский (двухголосый)[RAIM & NASTR]
Режиссер:Маржан Сатрапи

В ролях:


Райан Рейнольдс (Jerry Hickfang / Mr. Whiskers, озвучка / Bosco, озвучка / Deer, озвучка / Bunny Monkey, озвучка), Джемма Артертон (Fiona), Анна Кендрик (Lisa), Джеки Уивер (Dr. Warren), Ади Шанкар (Trendy John), Ricardia Bramley (Sheila Hammer), Пол Брайтвелл (Mack), Aaron Kissiov (Jerry Hickfang (child)), Валери Кох (Jerry's mother), Alessa Kordeck (Sheryl), Гулливер МакГрат (Teenage Jerry), Михаэль Пинк (Jesus)

Описание:
Джерри - оптимистичный, приятный парень, но он душевно болен и в последнее время не принимал назначенные ему препараты. В своих галлюцинациях он видит, как его кот предлагает ему стать серийным убийцей, в то время как его пес пытается убедить его, что он хороший человек. Начав вновь принимать препараты, он переживает короткие периоды ясности, в которые понимает, что в его жизни гораздо больше насилия, чем он себе представлял.

  • Мировая премьера:19 января 2014

    Тех.Данные:
    Качество: WEB-DLRip
    Формат:AVI
    Видео кодек: XviD
    Аудио кодек:AC3
    Видео: XviD, 720x304 (2.35:1), 1646 kbps, 23,976 fps, 0,300 bpp
    Аудио: AC3 / 2.0 / 48 kHz / 192 kbps / 16 bit

    Код:

    General
    Complete name                            : D:\Торенты\The.Voices.2014.HDRip.avi
    Format                                   : AVI
    Format/Info                              : Audio Video Interleave
    File size                                : 1.34 GiB
    Duration                                 : 1h 43mn
    Overall bit rate                         : 1 848 Kbps
    Writing application                      : VirtualDubMod 1.5.10.2 (build 2540/release)
    Writing library                          : VirtualDubMod build 2540/release

    Video
    ID                                       : 0
    Format                                   : MPEG-4 Visual
    Format profile                           : Advanced Simple@L5
    Format settings, BVOP                    : 2
    Format settings, QPel                    : No
    Format settings, GMC                     : No warppoints
    Format settings, Matrix                  : Default (H.263)
    Muxing mode                              : Packed bitstream
    Codec ID                                 : XVID
    Codec ID/Hint                            : XviD
    Duration                                 : 1h 43mn
    Bit rate                                 : 1646 Kbps
    Width                                    : 720 pixels
    Height                                   : 304 pixels
    Display aspect ratio                     : 2.35:1
    Frame rate                               : 23.976 fps
    Color space                              : YUV
    Chroma subsampling                       : 4:2:0
    Bit depth                                : 8 bits
    Scan type                                : Progressive
    Compression mode                         : Lossy
    Bits/(Pixel*Frame)                       : 0.300
    Stream size                              : 1.14 GiB (85%)
    Writing library                          : XviD 64

    Audio
    ID                                       : 1
    Format                                   : AC-3
    Format/Info                              : Audio Coding 3
    Mode extension                           : CM (complete main)
    Codec ID                                 : 2000
    Duration                                 : 1h 43mn
    Bit rate mode                            : Constant
    Bit rate                                 : 192 Kbps
    Channel(s)                               : 2 channels
    Channel positions                        : Front: L R
    Sampling rate                            : 48.0 KHz
    Bit depth                                : 16 bits
    Compression mode                         : Lossy
    Stream size                              : 142 MiB (10%)
    Alignment                                : Split accross interleaves

    Скриншоты:


    © Оформление by Ворон
    pb.wtf



  • Скачать Голоса через торрент http://pic.kartinco.top/images/6/ordi9.jpg Скачать фильм Голоса через торрент бесплантно в хорошем качестве Год выпуска:2014✦ Страна: США, Германия✦ Жанр:триллер, комедия, криминал✦ Продолжительность01:43:38✦ Перевод: ... 7.8 10 4
    Торрент: Зарегистрирован [2015-02-13 08:12] · скачан: 172 раз
    Статус: T временная
    Размер: 1.34 GB
    Как cкачать? Как скачать Голоса через торрент | qTorrent

    % Раздел Тема Автор DL S | L
    Зарубежные сериалы [ 16.9 GB ] Самый громкий голос / The Loudest Voice / Сезон: 1 / Серии: 1-5 из 7 [2019 WEB-DL 1080p] MVO [Novamedia] bober100 Скачать
    1 | 0
    Зарубежные сериалы [ 8.67 GB ] Самый громкий голос / The Loudest Voice / Сезон: 1 / Серии: 1-5 из 7 [2019 WEB-DL 720p] MVO [Novamedia] bober100 Скачать
    1 | 0
    Зарубежные сериалы [ 12.55 GB ] Самый громкий голос / The Loudest Voice / Сезон: 1 / Серии: 1-7 из 7 [2019 WEB-DL 720p] MVO [TVShows] bober100 Скачать
    1 | 0
    Зарубежные сериалы [ 23.92 GB ] Самый громкий голос / The Loudest Voice / Сезон: 1 / Серии: 1-7 из 7 [2019 WEB-DL 1080p] [MVO] killermax2013 Скачать
    1 | 0
    Зарубежные сериалы [ 3.44 GB ] Самый громкий голос / The Loudest Voice / Сезон: 1 / Серии: 1-5 из 7 [2019 WEB-DLRip] [MVO] killermax2013 Скачать
    1 | 0
    Зарубежные сериалы [ 10.93 GB ] Самый громкий голос / The Loudest Voice / Сезон: 1 / Серия 2 из 7 [2019 UHD WEB-DL 2160p] [SDR] MVO [Amedia] sheker187 Скачать
    1 | 0
    Фильмы 2017 [DVDrip, WEB-DLRip, HDrip] (DUB, MVO) [ 1.42 GB ] Голос из камня / Voice from the Stone [2017 BDRip] - Twi7ter Скачать
    2 | 0

    28-11-2019 20:33  

    Отключить всю рекламу на сайте

    14-02-2015 05:35 Голоса Скачать торрент  

    прикольный фильмец-хороший перевод-спасибо-посмотрел с удовольствиемpb.wtf



      Дорогой пользователь! Огромная просьба, поблагодарите релизера, оцените раздачу и оставьте свои комментарий, если Вы скачали Голоса через торрент бесплатно! Внесите свою лепту в развитие PiratBit!
      Комментировать посты могут только пользователи прошедшие не сложную регистрацию
      Показать сообщения:    

      Голоса через торрент
      Скачать бесплатно Голоса
      Голоса скачать торрент
      Голоса смотреть онлайн
      Cкачать фильм Голоса бесплатно
      Голоса скачать торрент в хорошем качестве
      Голоса смотреть онлайн бесплатно в хорошем качестве


      Вы не можете начинать темы
      Вы не можете отвечать на сообщения
      Вы не можете редактировать свои сообщения
      Вы не можете удалять свои сообщения
      Вы не можете голосовать в опросах
      Вы не можете прикреплять файлы к сообщениям
      Вы можете скачивать файлы