Ссылка на приватное зеркало всего за 1$. Внимание количество ограничено!!!

iTunes

iTunes

iTunes

1

iTunes

iTunes

iTunes

iTunes

iTunes

30
pack

$ от Little Big

ВАЖНО

!!Акция!!

Alien_RageХит недели

RePack

Resident Evil 21

ИГРА 18+

pack

RePack

jed

!!Акция!!

Alien_Rage

RePack

fifa19

RePack

Assassins Creed: Odyssey

RePack

NEED FOR SPEED™ PAYBACK

4 сезон

9 сезон

Бесстыжие 9 сезон

Все сериалы

все сериалы на PB.wtf

RePack

FAR CRY 5
  

Голоса / The Voices (Маржан Сатрапи ) [2014, триллер, комедия, криминал, WEB-DL 720p, Любительский (двухголосый) [RAIM & NASTR] pb.wtf

Голоса через торрент pb.wtf

Размер: 3.26 GB | Добавлен: 5 лет 4 мес. назад | Торрент скачан:65 раз
Скачать  

13-02-2015 08:14 Голоса Скачать торрент  


Голоса / The Voices


Информация:
Год выпуска:2014
Страна: США, Германия
Жанр:триллер, комедия, криминал
Продолжительность01:43:38
Перевод:Любительский (двухголосый) [RAIM & NASTR]
Субтитры: английские,
Режиссер:Маржан Сатрапи

В ролях:


Райан Рейнольдс (Jerry Hickfang / Mr. Whiskers, озвучка / Bosco, озвучка / Deer, озвучка / Bunny Monkey, озвучка), Джемма Артертон (Fiona), Анна Кендрик (Lisa), Джеки Уивер (Dr. Warren), Ади Шанкар (Trendy John), Ricardia Bramley (Sheila Hammer), Пол Брайтвелл (Mack), Aaron Kissiov (Jerry Hickfang (child)), Валери Кох (Jerry's mother), Alessa Kordeck (Sheryl), Гулливер МакГрат (Teenage Jerry), Михаэль Пинк (Jesus)

Описание:
Джерри - оптимистичный, приятный парень, но он душевно болен и в последнее время не принимал назначенные ему препараты. В своих галлюцинациях он видит, как его кот предлагает ему стать серийным убийцей, в то время как его пес пытается убедить его, что он хороший человек. Начав вновь принимать препараты, он переживает короткие периоды ясности, в которые понимает, что в его жизни гораздо больше насилия, чем он себе представлял.

  • Мировая премьера:19 января 2014

    Тех.Данные:
    Качество: WEB-DL 720p
    Формат:MKV
    Видео кодек: AVC
    Аудио кодек:AC3
    Видео: AVC, 1280x542 (2.35:1), 3840 kbps, 23,976 fps, 0,231 bpp
    Аудио №1: русский / AC3 / 2.0 / 48 kHz / 192 kbps / 16 bit ||
    Аудио №2: английский / AC3 / 5.1 / 48 kHz / 384 kbps / 16 bit
    Навигация по главам: есть

    Код:

    General
    Unique ID                                : 193744369584894026344522834848233810157 (0x91C1CEEC5AFCD32C8005429785CBE8ED)
    Complete name                            : D:\Торенты\G0losa.2014.L2.WEB-DL.720p.mkv
    Format                                   : Matroska
    Format version                           : Version 4 / Version 2
    File size                                : 3.26 GiB
    Duration                                 : 1h 43mn
    Overall bit rate                         : 4 506 Kbps
    Encoded date                             : UTC 2015-02-12 10:34:54
    Writing application                      : mkvmerge v6.5.0 ('Isn't she lovely') built on Oct 20 2013 12:50:05
    Writing library                          : libebml v1.3.0 + libmatroska v1.4.1

    Video
    ID                                       : 1
    Format                                   : AVC
    Format/Info                              : Advanced Video Codec
    Format profile                           : Main@L3.1
    Format settings, CABAC                   : No
    Format settings, ReFrames                : 2 frames
    Codec ID                                 : V_MPEG4/ISO/AVC
    Duration                                 : 1h 43mn
    Bit rate                                 : 3 841 Kbps
    Width                                    : 1 280 pixels
    Height                                   : 542 pixels
    Display aspect ratio                     : 2.35:1
    Frame rate                               : 23.976 fps
    Color space                              : YUV
    Chroma subsampling                       : 4:2:0
    Bit depth                                : 8 bits
    Scan type                                : Progressive
    Bits/(Pixel*Frame)                       : 0.231
    Stream size                              : 2.78 GiB (85%)
    Language                                 : English
    Default                                  : Yes
    Forced                                   : No
    Color primaries                          : BT.709-5, BT.1361, IEC 61966-2-4, SMPTE RP177
    Transfer characteristics                 : BT.709-5, BT.1361
    Matrix coefficients                      : BT.709-5, BT.1361, IEC 61966-2-4 709, SMPTE RP177

    Audio #1
    ID                                       : 2
    Format                                   : AC-3
    Format/Info                              : Audio Coding 3
    Mode extension                           : CM (complete main)
    Codec ID                                 : A_AC3
    Duration                                 : 1h 43mn
    Bit rate mode                            : Constant
    Bit rate                                 : 192 Kbps
    Channel(s)                               : 2 channels
    Channel positions                        : Front: L R
    Sampling rate                            : 48.0 KHz
    Bit depth                                : 16 bits
    Compression mode                         : Lossy
    Stream size                              : 142 MiB (4%)
    Language                                 : Russian
    Default                                  : Yes
    Forced                                   : No

    Audio #2
    ID                                       : 3
    Format                                   : AC-3
    Format/Info                              : Audio Coding 3
    Mode extension                           : CM (complete main)
    Codec ID                                 : A_AC3
    Duration                                 : 1h 43mn
    Bit rate mode                            : Constant
    Bit rate                                 : 384 Kbps
    Channel(s)                               : 6 channels
    Channel positions                        : Front: L C R, Side: L R, LFE
    Sampling rate                            : 48.0 KHz
    Bit depth                                : 16 bits
    Compression mode                         : Lossy
    Stream size                              : 285 MiB (9%)
    Language                                 : English
    Default                                  : No
    Forced                                   : No

    Text
    ID                                       : 4
    Format                                   : UTF-8
    Codec ID                                 : S_TEXT/UTF8
    Codec ID/Info                            : UTF-8 Plain Text
    Language                                 : English
    Default                                  : No
    Forced                                   : No

    Menu
    00:00:00.000                             : en:Chapter 1
    00:04:55.000                             : en:Chapter 2
    00:15:15.000                             : en:Chapter 3
    00:25:05.000                             : en:Chapter 4
    00:35:09.000                             : en:Chapter 5
    00:44:58.000                             : en:Chapter 6
    00:54:13.000                             : en:Chapter 7
    01:04:09.000                             : en:Chapter 8
    01:14:16.000                             : en:Chapter 9
    01:24:46.000                             : en:Chapter 10
    01:35:20.000                             : en:Chapter 11

    Скриншоты:


    © Оформление by Ворон
    pb.wtf



  • Скачать Голоса через торрент http://pic.kartinco.top/images/6/ordi9.jpg Скачать фильм Голоса через торрент бесплантно в хорошем качестве Год выпуска:2014✦ Страна: США, Германия✦ Жанр:триллер, комедия, криминал✦ Продолжительность01:43:38✦ Перевод: (двухголосый) ... 7 10 3
    Торрент: Зарегистрирован [2015-02-13 08:14] · скачан: 65 раз
    Статус: T временная
    Размер: 3.26 GB
    Как cкачать? Как скачать Голоса через торрент | qTorrent

    % Раздел Тема Автор DL S | L
    Зарубежные сериалы [ 16.9 GB ] Самый громкий голос / The Loudest Voice / Сезон: 1 / Серии: 1-5 из 7 [2019 WEB-DL 1080p] MVO [Novamedia] bober100 Скачать
    1 | 0
    Зарубежные сериалы [ 8.67 GB ] Самый громкий голос / The Loudest Voice / Сезон: 1 / Серии: 1-5 из 7 [2019 WEB-DL 720p] MVO [Novamedia] bober100 Скачать
    1 | 0
    Зарубежные сериалы [ 12.55 GB ] Самый громкий голос / The Loudest Voice / Сезон: 1 / Серии: 1-7 из 7 [2019 WEB-DL 720p] MVO [TVShows] bober100 Скачать
    1 | 0
    Зарубежные сериалы [ 23.92 GB ] Самый громкий голос / The Loudest Voice / Сезон: 1 / Серии: 1-7 из 7 [2019 WEB-DL 1080p] [MVO] killermax2013 Скачать
    1 | 0
    Зарубежные сериалы [ 3.44 GB ] Самый громкий голос / The Loudest Voice / Сезон: 1 / Серии: 1-5 из 7 [2019 WEB-DLRip] [MVO] killermax2013 Скачать
    1 | 0
    Зарубежные сериалы [ 10.93 GB ] Самый громкий голос / The Loudest Voice / Сезон: 1 / Серия 2 из 7 [2019 UHD WEB-DL 2160p] [SDR] MVO [Amedia] sheker187 Скачать
    1 | 0
    Фильмы 2017 [DVDrip, WEB-DLRip, HDrip] (DUB, MVO) [ 1.42 GB ] Голос из камня / Voice from the Stone [2017 BDRip] - Twi7ter Скачать
    1 | 0

    28-11-2019 20:33  

    Отключить всю рекламу на сайте

    14-02-2015 05:38 Голоса Скачать торрент  

    кино понравилось-перевод хороший-все замечательно легко смотритсяpb.wtf



      Дорогой пользователь! Огромная просьба, поблагодарите релизера, оцените раздачу и оставьте свои комментарий, если Вы скачали Голоса через торрент бесплатно! Внесите свою лепту в развитие PiratBit!
      Комментировать посты могут только пользователи прошедшие не сложную регистрацию
      Показать сообщения:    

      Голоса через торрент
      Скачать бесплатно Голоса
      Голоса скачать торрент
      Голоса смотреть онлайн
      Cкачать фильм Голоса бесплатно
      Голоса скачать торрент в хорошем качестве
      Голоса смотреть онлайн бесплатно в хорошем качестве


      Вы не можете начинать темы
      Вы не можете отвечать на сообщения
      Вы не можете редактировать свои сообщения
      Вы не можете удалять свои сообщения
      Вы не можете голосовать в опросах
      Вы не можете прикреплять файлы к сообщениям
      Вы можете скачивать файлы