2 сезон

iTunes

1 сезон

1

iTunes

iTunes

iTunes

1 сезон

RePack

30

ИГРА 18+

pack

ВАЖНО

!!Акция!!

Alien_RageХит недели

RePack

MK11
pack

Забери бонус

RePack

jed

!!Акция!!

Alien_Rage

RePack

fifa19

RePack

Assassins Creed: Odyssey

RePack

NEED FOR SPEED™ PAYBACK

4 сезон

9 сезон

Бесстыжие 9 сезон

Все сериалы

все сериалы на PB.wtf

RePack

FAR CRY 5
  

По следу зверя (мини-сериал) / Серии 1-4 из 4 (Олег Курамшин) [2014, Россия, драма, криминал, SATRip) pb.wtf

По следу зверя через торрент pb.wtf

Размер: 2.37 GB | Добавлен: 5 лет 8 мес. назад | Торрент скачан:611 раз
Скачать  

13-02-2015 12:14 По следу зверя Скачать торрент  

По следу зверя


  • Год выпуска: 2014
  • Страна: Россия
  • Жанр: драма, криминал
  • Продолжительность: 00:43:00 (Серия)
  • Перевод: Не требуется

  • Режиссер: Олег Курамшин
  • В ролях:

    Эдуард Флёров, Илья Древнов, Евгения Туркова (Дина), Мария Чувилина (Даша), Юлия Тельпухова (Тамара), Михаил Салин (оперативник), Алексей Шаранин (санитар), Ирина Шиленко (менеджер в банке), Артём Кочетов (оперативник), Игорь Стаценко (Смирнов), Евграф Прохоров (хирург), Александр Яковлев (охранник банка)

  • Описание:
    Однажды судьба переплела жизни двух совершенно разных людей: преступника-рецидивиста Григория Архарова по кличке Зверь и следователя Антона Карелина. Карелин вместе с оперативниками ловил банду автоугонщиков, а поймал более «крупную рыбку». Известного преступника-рецидивиста Архарова безуспешно разыскивали за серию дерзких грабежей и убийств силовики сразу нескольких стран СНГ. С его умом, хваткой, невероятной интуицией и звериным чутьем, он мог попасться только случайно, что и произошло... Но Архарову удалось сбежать из обезьянника, а вот его подельник - Щуплый - во время побега был ранен и остался в РОВД. Зверь пообещал вытащить его. Тем временем Архаров похитил сына Карелина, требуя обмена на своего закадычного дружка. Рискуя служебным положением, Карелин вытащил Щуплого из больницы. Однако сын Карелина погиб во время преследования... Жена Карелина - Тома - не смогла простить мужу гибель сына и планомерно превратила его жизнь в ад. Карелин клянется ей, что найдет и убьет Зверя. Ради этого он идет на всё.... Так, желая найти отморозка, Карелин захватил любимую женщину Архарова, и косвенно явился причиной ее смерти... Антон Карелин потерял смысл жизни, но у него осталась цель... Теперь он не боится никого и ничего, и упорно идет по следу Зверя... Архаров же все ближе подбирается к Карелину, и все плотнее сжимает кольцо вокруг него...
  • Рейтинг:



  • Качество: SATRip
  • Формат: :AVI
  • Видео кодек: DivX 5
  • Аудио кодек: MP3
  • Видео: 720x448 (1.607), 1500 kbps, 25 fps, 0,186 bpp
  • Аудио: 2.0 / 48 kHz / 128 kbps /
  • Релиз от: GEKADOL

    Код:

    Внимание! Раздача ведётся путём добавления новых серий; при каждом добавлении создаётся новый торрент. Чтобы начать докачку новой серии, пользователям необходимо сделать следующее:
    (1) остановить скачивание,
    (2) удалить старый торрент у себя из клиента (старые серии удалять не надо),
    (3) скачать новый торрент и запустить его у себя в клиенте вместо старого, при этом указать клиенту путь в старую папку куда и должно происходить скачивание новых серий.
    Ваш клиент при этом должен произвести хеширование (проверку) старой папки (если не производит сам - помогите ему сделать это), и будет докачивать только те серии которых у вас ещё нет. Старые серии при этом не удаляются, а продолжают раздаваться!
    Eсли вы уже удалили старые серии, то предотвратить повторную закачку старых серий можно, отжав галочку в соответствующих местах при запуске нового торрента. По возможности, желательно не удалять старые серии как можно дольше чтобы релизёр не столько продолжал раздавать старые серии, а смог сконцентрироваться на новых.


    Код:

    General
    Complete name                            : I:\Po.sledu.Zverja.01.SATRip.avi
    Format                                   : AVI
    Format/Info                              : Audio Video Interleave
    File size                                : 505 MiB
    Duration                                 : 43mn 0s
    Overall bit rate                         : 1 642 Kbps

    Video
    ID                                       : 0
    Format                                   : MPEG-4 Visual
    Format settings, BVOP                    : 1
    Format settings, QPel                    : No
    Format settings, GMC                     : No warppoints
    Format settings, Matrix                  : Default (H.263)
    Codec ID                                 : DX50
    Codec ID/Hint                            : DivX 5
    Duration                                 : 43mn 0s
    Bit rate                                 : 1 500 Kbps
    Width                                    : 720 pixels
    Height                                   : 448 pixels
    Display aspect ratio                     : 1.607
    Frame rate                               : 25.000 fps
    Color space                              : YUV
    Chroma subsampling                       : 4:2:0
    Bit depth                                : 8 bits
    Scan type                                : Progressive
    Compression mode                         : Lossy
    Bits/(Pixel*Frame)                       : 0.186
    Stream size                              : 461 MiB (91%)
    Writing library                          : DivX 6.8.5 (UTC 2009-08-20)

    Audio
    ID                                       : 1
    Format                                   : MPEG Audio
    Format version                           : Version 1
    Format profile                           : Layer 3
    Mode                                     : Joint stereo
    Mode extension                           : MS Stereo
    Codec ID                                 : 55
    Codec ID/Hint                            : MP3
    Duration                                 : 42mn 59s
    Bit rate mode                            : Constant
    Bit rate                                 : 128 Kbps
    Channel(s)                               : 2 channels
    Sampling rate                            : 48.0 KHz
    Compression mode                         : Lossy
    Stream size                              : 39.4 MiB (8%)
    Alignment                                : Aligned on interleaves
    Interleave, duration                     : 24 ms (0.60 video frame)


    Скриншоты:
    скриншот   скриншот   скриншот   скриншот   скриншот  
    скриншот  

    Раздача ведётся путём добавления новых серий. Добавлена 4 серия (14.02.2015).Просьба перекачать торрент файл.

    pb.wtf



  • Скачать По следу зверя через торрент http://i59.fastpic.ru/big/2015/0213/aa/5511cbe869ce7847693075ceaeb0bdaa.jpg Скачать фильм По следу зверя через торрент бесплантно в хорошем качестве Описание: Однажды судьба переплела жизни двух совершенно разных людей: преступника-рецидивиста Григория Архарова по кличке Зверь и ... 9.8 10 20
    Info! Золотая раздача, скачанное не засчитывается.
    Торрент: Зарегистрирован [2015-02-14 04:27] · скачан: 611 раз
    Статус: √ проверено
    Размер: 2.37 GB
    Как cкачать? Как скачать По следу зверя через торрент | qTorrent

    % Раздел Тема Автор DL S | L
    Наши сериалы [ 3.85 GB ] По следу зверя [2014 DVB] Оригинал Бумер Скачать
    1 | 0

    28-11-2019 20:33  

    Отключить всю рекламу на сайте

      Дорогой пользователь! Огромная просьба, поблагодарите релизера, оцените раздачу и оставьте свои комментарий, если Вы скачали По следу зверя через торрент бесплатно! Внесите свою лепту в развитие PiratBit!
      Комментировать посты могут только пользователи прошедшие не сложную регистрацию
      Показать сообщения:    

      По следу зверя через торрент
      Скачать бесплатно По следу зверя
      По следу зверя скачать торрент
      По следу зверя смотреть онлайн
      Cкачать фильм По следу зверя бесплатно
      По следу зверя скачать торрент в хорошем качестве
      По следу зверя смотреть онлайн бесплатно в хорошем качестве


      Вы не можете начинать темы
      Вы не можете отвечать на сообщения
      Вы не можете редактировать свои сообщения
      Вы не можете удалять свои сообщения
      Вы не можете голосовать в опросах
      Вы не можете прикреплять файлы к сообщениям
      Вы можете скачивать файлы