Ссылка на приватное зеркало всего за 1$. Внимание количество ограничено!!!

iTunes

1+1

iTunes

мы

WEB-DL

1

iTunes

Чернобыль

iTunes

Ральф против интернета

Лицензия

ПШазам

Лицензия

Оно 2

Лицензия

30
pack

Вам бонус

ВАЖНО

!!Акция!!

Alien_RageХит недели

RePack

Resident Evil 21

ИГРА 18+

pack

RePack

jed

!!Акция!!

Alien_Rage

RePack

fifa19

RePack

Assassins Creed: Odyssey

RePack

NEED FOR SPEED™ PAYBACK

3 сезон

9 сезон

Бесстыжие 9 сезон

Все сериалы

все сериалы на PB.wtf

RePack

FAR CRY 5
Ребята, катастрофически не хватает 1900р. для оплаты серверов за Октябрь (всвязи с блокировками трафик упал в 3 раза), 1-2р., выручайте.
  

Испытание (Александр Котт ) [2014, драма, WEB-DLRip] pb.wtf

Испытание через торрент pb.wtf

Размер: 1.46 GB | Добавлен: 4 года 10 мес. назад | Торрент скачан:228 раз
Скачать  

13-02-2015 14:54 Испытание Скачать торрент  


Испытание


Информация:
Год выпуска:2014
Страна: Россия
Жанр:драма
Продолжительность01:32:03
Перевод:Не требуется
Режиссер:Александр Котт

В ролях:


Елена Ан (Дина), Данила Рассомахин (Макс), Карим Пакачаков (Толгат), Нариман Бекбулатов-Арешев (Кайсын), Эдуард Галкин, Дмитрий Семенов, Юрий Пимкин, Игорь Ливенцов, Мирослав Тузин, Рустем Османов, Расим Мамутов, Александр Ким

Описание:
Они живут в степи. Отец и дочь. Ничто не может нарушить вечный порядок. Завтра наступает всегда. И каждое утро отец уезжает работать. И она остается одна. Ждать отца. И чувствовать. Двое любят ее. Она любит каждого. Любовь нельзя поделить.
Однажды решение приходит само. Оттуда, где солнце.

  • Мировая премьера:28 октября 2014

    Тех.Данные:
    Качество: WEB-DLRip
    Формат:AVI
    Видео кодек: XviD
    Аудио кодек:AC3
    Видео: XviD, 720x304 (2.35:1), 1875 kbps, 25 fps, 0,327 bpp
    Аудио: AC3 / 5.1 / 48 kHz / 384 kbps / 16 bit

    Код:

    General
    Complete name                            : D:\Торенты\Ispytanie.2014.O.WBDLRip.avi
    Format                                   : AVI
    Format/Info                              : Audio Video Interleave
    File size                                : 1.46 GiB
    Duration                                 : 1h 32mn
    Overall bit rate                         : 2 270 Kbps
    Writing application                      : VirtualDubMod 1.5.10.3 | www.virtualdub-fr.org || (build 2550/release)
    Writing library                          : VirtualDubMod build 2550/release

    Video
    ID                                       : 0
    Format                                   : MPEG-4 Visual
    Format profile                           : Advanced Simple@L5
    Format settings, BVOP                    : 2
    Format settings, QPel                    : No
    Format settings, GMC                     : No warppoints
    Format settings, Matrix                  : Default (MPEG)
    Codec ID                                 : XVID
    Codec ID/Hint                            : XviD
    Duration                                 : 1h 32mn
    Bit rate                                 : 1875 Kbps
    Width                                    : 720 pixels
    Height                                   : 304 pixels
    Display aspect ratio                     : 2.35:1
    Frame rate                               : 25.000 fps
    Color space                              : YUV
    Chroma subsampling                       : 4:2:0
    Bit depth                                : 8 bits
    Scan type                                : Progressive
    Compression mode                         : Lossy
    Bits/(Pixel*Frame)                       : 0.327
    Stream size                              : 1.15 GiB (79%)
    Writing library                          : XviD 1.2.1 (UTC 2008-12-04)

    Audio
    ID                                       : 1
    Format                                   : AC-3
    Format/Info                              : Audio Coding 3
    Mode extension                           : CM (complete main)
    Codec ID                                 : 2000
    Duration                                 : 1h 32mn
    Bit rate mode                            : Constant
    Bit rate                                 : 384 Kbps
    Channel(s)                               : 6 channels
    Channel positions                        : Front: L C R, Side: L R, LFE
    Sampling rate                            : 48.0 KHz
    Bit depth                                : 16 bits
    Compression mode                         : Lossy
    Stream size                              : 253 MiB (17%)
    Alignment                                : Split accross interleaves

    Скриншоты:


    © Оформление by Ворон
    pb.wtf



  • Скачать Испытание через торрент http://pic.kartinco.top/images/6/ordi9.jpg Скачать фильм Испытание через торрент бесплантно в хорошем качестве Год выпуска:2014✦ Страна: Россия✦ Жанр:драма✦ Продолжительность01:32:03✦ Перевод:Не требуется✦ Режиссер:Александр Котт В ролях: Елена ... 8.7 10 7
    Торрент: Зарегистрирован [2015-02-13 14:54] · скачан: 228 раз
    Статус: √ проверено
    Размер: 1.46 GB
    Как cкачать? Как скачать Испытание через торрент | qTorrent

    % Раздел Тема Автор DL S | L
    Фильмы 2018 [DVDrip, WEB-DLRip, HDrip] (DUB, MVO) [ 2.73 GB ] Испытание огнем / Trial by Fire [2018 биография WEB-DLRip-AVC] + MVO [HDRezka Studio] - OlLanDGroup Skandar2019 Скачать
    4 | 0
    Наши новые фильмы 2018-2019 [ 2.18 GB ] Последнее испытание [2019 WEB-DLRip] bober100 Скачать
    13 | 0
    Наши фильмы (HD, WEB-DL 720p, 1080p) [ 4.77 GB ] Последнее испытание [2019 WEB-DL 1080p] bober100 Скачать
    7 | 0
    Наши новые фильмы 2018-2019 [ 2.04 GB ] Последнее испытание [2019 WEB-DLRip-AVC] bober100 Скачать
    3 | 0
    Наши новые фильмы 2018-2019 [ 1.45 GB ] Последнее испытание [2019 WEB-DLRip] bober100 Скачать
    7 | 0
    Фильмы 2018 [DVDrip, WEB-DLRip, HDrip] (DUB, MVO) [ 1.45 GB ] Испытание огнем / Trial by Fire [2018 биография WEB-DLRip] MVO [HDRezka Studio] - ExKinoRay Enigma2010 Скачать
    52 | 1
    Фильмы (WEB-DL 720p, 1080p) [ 9.3 GB ] Испытание огнем / Trial by Fire [2018 биография WEB-DL 1080p] +MVO [HDRezka Studio] bober100 Скачать
    2 | 0

    28-11-2019 20:33  

    Отключить всю рекламу на сайте


    13-02-2015 16:05 Испытание Скачать торрент  

    В ролях: .... фото четырех мужиков...
    Кто из них играет дочь??!! pb.wtf



    13-02-2015 17:35 Испытание Скачать торрент  

    mojk писал(а):

    В ролях: .... фото четырех мужиков...
    Кто из них играет дочь??!!

    Елена Ан...подходит для четвертого pb.wtf



      Дорогой пользователь! Огромная просьба, поблагодарите релизера, оцените раздачу и оставьте свои комментарий, если Вы скачали Испытание через торрент бесплатно! Внесите свою лепту в развитие PiratBit!
      Комментировать посты могут только пользователи прошедшие не сложную регистрацию
      Показать сообщения:    

      Испытание через торрент
      Скачать бесплатно Испытание
      Испытание скачать торрент
      Испытание смотреть онлайн
      Cкачать фильм Испытание бесплатно
      Испытание скачать торрент в хорошем качестве
      Испытание смотреть онлайн бесплатно в хорошем качестве


      Вы не можете начинать темы
      Вы не можете отвечать на сообщения
      Вы не можете редактировать свои сообщения
      Вы не можете удалять свои сообщения
      Вы не можете голосовать в опросах
      Вы не можете прикреплять файлы к сообщениям
      Вы можете скачивать файлы