Всегда рабочее зеркало просто перед .vidak.icu напиши любое слово или цифру, Пример http://q9k.vidak.icu

>

7.4

iTunes

7.4

2 сезон

9.4

1 сезон

1

7.4

2 сезон

7.2

iTunes

6.0

MVO

13

6.1

iTunes

8.3

Пиратка

30

ULTIMATE

pack

9.9

Лицензия

ВАЖНО

ИГРА 18+

pack

7.3

RePack

MK11

7.7

RePack

jed

7.8

RePack

fifa19

8.5

RePack

RDR2

RePack

NEED FOR SPEED™ PAYBACK

1 сезон

9 сезон

Бесстыжие 9 сезон

Все сериалы

все сериалы на PB.wtf

RePack

FAR CRY 5

Anonymous, доброй ночи, мы катастрофически не успеваем собрать деньги на оплату серверов, помогите нам пожалуйста 5,10,15р., для нас важна любая помощь . В качестве благодарности мы отключим Вам всю рекламу на сайте (укажите свой ник в строку Ваше имя)!

×
  
Magnet ссылка

Испытание (Александр Котт ) [2014, драма, WEB-DLRip] pb.wtf

Испытание через торрент pb.wtf

Размер: 1.46 GB | Добавлен: 6 лет 11 мес. назад | Торрент скачан:229 раз
Смотреть онлайн Испытание | Скачать    Ребята, помогите собрать деньги на оплату серверов!!!

13-02-2015 14:54 Испытание Скачать торрент  


Испытание


Информация:
Год выпуска:2014
Страна: Россия
Жанр:драма
Продолжительность01:32:03
Перевод:Не требуется
Режиссер:Александр Котт

В ролях:


Елена Ан (Дина), Данила Рассомахин (Макс), Карим Пакачаков (Толгат), Нариман Бекбулатов-Арешев (Кайсын), Эдуард Галкин, Дмитрий Семенов, Юрий Пимкин, Игорь Ливенцов, Мирослав Тузин, Рустем Османов, Расим Мамутов, Александр Ким

Описание:
Они живут в степи. Отец и дочь. Ничто не может нарушить вечный порядок. Завтра наступает всегда. И каждое утро отец уезжает работать. И она остается одна. Ждать отца. И чувствовать. Двое любят ее. Она любит каждого. Любовь нельзя поделить.
Однажды решение приходит само. Оттуда, где солнце.

  • Мировая премьера:28 октября 2014

    Тех.Данные:
    Качество: WEB-DLRip
    Формат:AVI
    Видео кодек: XviD
    Аудио кодек:AC3
    Видео: XviD, 720x304 (2.35:1), 1875 kbps, 25 fps, 0,327 bpp
    Аудио: AC3 / 5.1 / 48 kHz / 384 kbps / 16 bit

    Код:

    General
    Complete name                            : D:\Торенты\Ispytanie.2014.O.WBDLRip.avi
    Format                                   : AVI
    Format/Info                              : Audio Video Interleave
    File size                                : 1.46 GiB
    Duration                                 : 1h 32mn
    Overall bit rate                         : 2 270 Kbps
    Writing application                      : VirtualDubMod 1.5.10.3 | www.virtualdub-fr.org || (build 2550/release)
    Writing library                          : VirtualDubMod build 2550/release

    Video
    ID                                       : 0
    Format                                   : MPEG-4 Visual
    Format profile                           : Advanced Simple@L5
    Format settings, BVOP                    : 2
    Format settings, QPel                    : No
    Format settings, GMC                     : No warppoints
    Format settings, Matrix                  : Default (MPEG)
    Codec ID                                 : XVID
    Codec ID/Hint                            : XviD
    Duration                                 : 1h 32mn
    Bit rate                                 : 1875 Kbps
    Width                                    : 720 pixels
    Height                                   : 304 pixels
    Display aspect ratio                     : 2.35:1
    Frame rate                               : 25.000 fps
    Color space                              : YUV
    Chroma subsampling                       : 4:2:0
    Bit depth                                : 8 bits
    Scan type                                : Progressive
    Compression mode                         : Lossy
    Bits/(Pixel*Frame)                       : 0.327
    Stream size                              : 1.15 GiB (79%)
    Writing library                          : XviD 1.2.1 (UTC 2008-12-04)

    Audio
    ID                                       : 1
    Format                                   : AC-3
    Format/Info                              : Audio Coding 3
    Mode extension                           : CM (complete main)
    Codec ID                                 : 2000
    Duration                                 : 1h 32mn
    Bit rate mode                            : Constant
    Bit rate                                 : 384 Kbps
    Channel(s)                               : 6 channels
    Channel positions                        : Front: L C R, Side: L R, LFE
    Sampling rate                            : 48.0 KHz
    Bit depth                                : 16 bits
    Compression mode                         : Lossy
    Stream size                              : 253 MiB (17%)
    Alignment                                : Split accross interleaves

    Скриншоты:


    © Оформление by Ворон
    pb.wtf



  • Скачать Испытание через торрент https://pic1.kartinco.top/images/61/ordi9.jpg Скачать, смотреть онлайн Испытание бесплантно в хорошем качестве Год выпуска:2014✦ Страна: Россия✦ Жанр:драма✦ Продолжительность01:32:03✦ Перевод:Не требуется✦ Режиссер:Александр Котт В ролях: Елена ... 8.7 10 7
    Торрент: Зарегистрирован [2015-02-13 14:54] · скачан: 229 раз
    Статус: √ проверено
    Размер: 1.46 GB
    Как cкачать? Как скачать Испытание через торрент | UTorrent

    % Раздел Тема Автор DL S | L
    Фантастика [ 268 MB ] Виктор Мишин - Испытания [Макс Радман 2020 96 kbps MP3] urapavel Скачать
    2 | 0
    Фильмы 2018 [DVDrip, WEB-DLRip, HDrip] (DUB, MVO) [ 2.73 GB ] Испытание огнем / Trial by Fire [2018 биография WEB-DLRip-AVC] + MVO [HDRezka Studio] - OlLanDGroup Skandar2019 Скачать
    1 | 0
    Наши фильмы 2018-2019 [ 2.18 GB ] Последнее испытание [2019 WEB-DLRip] bober100 Скачать
    1 | 0
    Наши фильмы (HD, WEB-DL 720p, 1080p) [ 4.77 GB ] Последнее испытание [2019 WEB-DL 1080p] bober100 Скачать
    1 | 0
    Наши фильмы 2018-2019 [ 2.04 GB ] Последнее испытание [2019 WEB-DLRip-AVC] bober100 Скачать
    1 | 0
    Наши фильмы 2018-2019 [ 1.45 GB ] Последнее испытание [2019 WEB-DLRip] bober100 Скачать
    1 | 0
    Фильмы 2018 [DVDrip, WEB-DLRip, HDrip] (DUB, MVO) [ 1.45 GB ] Испытание огнем / Trial by Fire [2018 биография WEB-DLRip] MVO [HDRezka Studio] - ExKinoRay Enigma2010 Скачать
    1 | 0

    28-11-2019 20:33  

    Отключить всю рекламу на сайте

    13-02-2015 16:05 Испытание Скачать торрент  

    В ролях: .... фото четырех мужиков...
    Кто из них играет дочь??!! pb.wtf



    13-02-2015 17:35 Испытание Скачать торрент  

    mojk писал(а):

    В ролях: .... фото четырех мужиков...
    Кто из них играет дочь??!!

    Елена Ан...подходит для четвертого pb.wtf



      Дорогой пользователь! Огромная просьба, поблагодарите релизера, оцените раздачу и оставьте свои комментарий, если Вы скачали Испытание через торрент бесплатно!
      Комментировать посты могут только пользователи прошедшие не сложную регистрацию
      Показать сообщения:    

      Испытание через торрент
      Скачать бесплатно Испытание
      Испытание скачать торрент
      Испытание смотреть онлайн
      Cкачать фильм Испытание бесплатно
      Испытание скачать торрент в хорошем качестве
      Испытание смотреть онлайн бесплатно в хорошем качестве


      Вы не можете начинать темы
      Вы не можете отвечать на сообщения
      Вы не можете редактировать свои сообщения
      Вы не можете удалять свои сообщения
      Вы не можете голосовать в опросах
      Вы не можете прикреплять файлы к сообщениям
      Вы можете скачивать файлы