Ссылка на приватное зеркало всего за 1$. Внимание количество ограничено!!!

iTunes

1+1

iTunes

мы

WEB-DL

1

iTunes

Чернобыль

iTunes

Ральф против интернета

Лицензия

ПШазам

Лицензия

Оно 2

Лицензия

30
pack

Вам бонус

ВАЖНО

!!Акция!!

Alien_RageХит недели

RePack

Resident Evil 21

ИГРА 18+

pack

RePack

jed

!!Акция!!

Alien_Rage

RePack

fifa19

RePack

Assassins Creed: Odyssey

RePack

NEED FOR SPEED™ PAYBACK

3 сезон

9 сезон

Бесстыжие 9 сезон

Все сериалы

все сериалы на PB.wtf

RePack

FAR CRY 5
Ребята, катастрофически не хватает 1900р. для оплаты серверов за Октябрь (всвязи с блокировками трафик упал в 3 раза), 1-2р., выручайте.
  

Испытание (Александр Котт ) [2014, драма, WEB-DL 1080p] pb.wtf

Испытание через торрент pb.wtf

Размер: 3.2 GB | Добавлен: 4 года 10 мес. назад | Торрент скачан:82 раза
Скачать  

13-02-2015 14:56 Испытание Скачать торрент  


Испытание


ИНФОРМАЦИЯ:
Год выпуска:2014
Страна: Россия
Жанр:драма
Продолжительность01:32:03
Перевод:Не требуется
Режиссер:Александр Котт

В Ролях:


Елена Ан (Дина), Данила Рассомахин (Макс), Карим Пакачаков (Толгат), Нариман Бекбулатов-Арешев (Кайсын), Эдуард Галкин, Дмитрий Семенов, Юрий Пимкин, Игорь Ливенцов, Мирослав Тузин, Рустем Османов, Расим Мамутов, Александр Ким

ОПИСАНИЕ:
Они живут в степи. Отец и дочь. Ничто не может нарушить вечный порядок. Завтра наступает всегда. И каждое утро отец уезжает работать. И она остается одна. Ждать отца. И чувствовать. Двое любят ее. Она любит каждого. Любовь нельзя поделить.
Однажды решение приходит само. Оттуда, где солнце.


ТЕХ.ДАННЫЕ:
Качество: WEB-DL 1080p
Формат:MKV
Видео кодек: AVC
Аудио кодек:AC3
Видео: AVC, 1920x822 (2.35:1), 4497 kbps, 25 fps, 0,114 bpp
Аудио: русский / AC3 / 5.1 / 48 kHz / 384 kbps / 16 bit ||
Навигация по главам: есть

Код:

General
Unique ID                                : 175154668486162922447576078775378364775 (0x83C58FE55EF2BD208889F42076EDC967)
Complete name                            : D:\Торенты\Ispytanie.2014.O.WBDL.1080p.mkv
Format                                   : Matroska
Format version                           : Version 4 / Version 2
File size                                : 3.20 GiB
Duration                                 : 1h 32mn
Overall bit rate                         : 4 981 Kbps
Encoded date                             : UTC 2015-02-13 12:19:52
Writing application                      : mkvmerge v6.8.0 ('Theme for Great Cities') 64bit built on Mar  2 2014 21:34:26
Writing library                          : libebml v1.3.0 + libmatroska v1.4.1

Video
ID                                       : 1
Format                                   : AVC
Format/Info                              : Advanced Video Codec
Format profile                           : High@L4.0
Format settings, CABAC                   : Yes
Format settings, ReFrames                : 5 frames
Codec ID                                 : V_MPEG4/ISO/AVC
Duration                                 : 1h 32mn
Bit rate                                 : 4 498 Kbps
Width                                    : 1 920 pixels
Height                                   : 822 pixels
Display aspect ratio                     : 2.35:1
Frame rate                               : 25.000 fps
Color space                              : YUV
Chroma subsampling                       : 4:2:0
Bit depth                                : 8 bits
Scan type                                : Progressive
Bits/(Pixel*Frame)                       : 0.114
Stream size                              : 2.89 GiB (90%)
Language                                 : English
Default                                  : Yes
Forced                                   : No
Color primaries                          : BT.709-5, BT.1361, IEC 61966-2-4, SMPTE RP177
Transfer characteristics                 : BT.709-5, BT.1361
Matrix coefficients                      : BT.709-5, BT.1361, IEC 61966-2-4 709, SMPTE RP177

Audio
ID                                       : 2
Format                                   : AC-3
Format/Info                              : Audio Coding 3
Mode extension                           : CM (complete main)
Codec ID                                 : A_AC3
Duration                                 : 1h 32mn
Bit rate mode                            : Constant
Bit rate                                 : 384 Kbps
Channel(s)                               : 6 channels
Channel positions                        : Front: L C R, Side: L R, LFE
Sampling rate                            : 48.0 KHz
Bit depth                                : 16 bits
Compression mode                         : Lossy
Stream size                              : 253 MiB (8%)
Language                                 : Russian
Default                                  : Yes
Forced                                   : No

Menu
00:00:00.000                             : en:Глава 1
00:04:53.000                             : en:Глава 2
00:10:25.000                             : en:Глава 3
00:16:10.000                             : en:Глава 4
00:21:16.000                             : en:Глава 5
00:26:35.000                             : en:Глава 6
00:32:35.000                             : en:Глава 7
00:37:48.000                             : en:Глава 8
00:43:48.000                             : en:Глава 9
00:49:01.000                             : en:Глава 10
00:54:24.000                             : en:Глава 11
01:01:06.000                             : en:Глава 12
01:06:22.000                             : en:Глава 13
01:11:57.000                             : en:Глава 14
01:17:51.000                             : en:Глава 15
01:23:29.000                             : en:Глава 16
01:27:36.000                             : en:Глава 17

Скриншоты:


© Оформление by Ворон
pb.wtf



Скачать Испытание через торрент http://pic.kartinco.top/images/6/ordi9.jpg Скачать фильм Испытание через торрент бесплантно в хорошем качестве Е:Они живут в степи. Отец и дочь. Ничто не может нарушить вечный порядок. Завтра наступает всегда. И каждое утро отец уезжает работать. И ... 8 10 6
Торрент: Зарегистрирован [2015-02-13 14:56] · скачан: 82 раз
Статус: √ проверено
Размер: 3.2 GB
Как cкачать? Как скачать Испытание через торрент | qTorrent

% Раздел Тема Автор DL S | L
Фильмы 2018 [DVDrip, WEB-DLRip, HDrip] (DUB, MVO) [ 2.73 GB ] Испытание огнем / Trial by Fire [2018 биография WEB-DLRip-AVC] + MVO [HDRezka Studio] - OlLanDGroup Skandar2019 Скачать
6 | 0
Наши новые фильмы 2018-2019 [ 2.18 GB ] Последнее испытание [2019 WEB-DLRip] bober100 Скачать
12 | 0
Наши фильмы (HD, WEB-DL 720p, 1080p) [ 4.77 GB ] Последнее испытание [2019 WEB-DL 1080p] bober100 Скачать
7 | 0
Наши новые фильмы 2018-2019 [ 2.04 GB ] Последнее испытание [2019 WEB-DLRip-AVC] bober100 Скачать
3 | 0
Наши новые фильмы 2018-2019 [ 1.45 GB ] Последнее испытание [2019 WEB-DLRip] bober100 Скачать
7 | 0
Фильмы 2018 [DVDrip, WEB-DLRip, HDrip] (DUB, MVO) [ 1.45 GB ] Испытание огнем / Trial by Fire [2018 биография WEB-DLRip] MVO [HDRezka Studio] - ExKinoRay Enigma2010 Скачать
53 | 1
Фильмы (WEB-DL 720p, 1080p) [ 9.3 GB ] Испытание огнем / Trial by Fire [2018 биография WEB-DL 1080p] +MVO [HDRezka Studio] bober100 Скачать
2 | 0

28-11-2019 20:33  

Отключить всю рекламу на сайте

    Дорогой пользователь! Огромная просьба, поблагодарите релизера, оцените раздачу и оставьте свои комментарий, если Вы скачали Испытание через торрент бесплатно! Внесите свою лепту в развитие PiratBit!
    Комментировать посты могут только пользователи прошедшие не сложную регистрацию
    Показать сообщения:    

    Испытание через торрент
    Скачать бесплатно Испытание
    Испытание скачать торрент
    Испытание смотреть онлайн
    Cкачать фильм Испытание бесплатно
    Испытание скачать торрент в хорошем качестве
    Испытание смотреть онлайн бесплатно в хорошем качестве


    Вы не можете начинать темы
    Вы не можете отвечать на сообщения
    Вы не можете редактировать свои сообщения
    Вы не можете удалять свои сообщения
    Вы не можете голосовать в опросах
    Вы не можете прикреплять файлы к сообщениям
    Вы можете скачивать файлы