2 сезон

iTunes

1 сезон

1

iTunes

iTunes

iTunes

1 сезон

RePack

30

ИГРА 18+

pack

ВАЖНО

!!Акция!!

Alien_RageХит недели

RePack

MK11
pack

Забери бонус

RePack

jed

!!Акция!!

Alien_Rage

RePack

fifa19

RePack

Assassins Creed: Odyssey

RePack

NEED FOR SPEED™ PAYBACK

4 сезон

9 сезон

Бесстыжие 9 сезон

Все сериалы

все сериалы на PB.wtf

RePack

FAR CRY 5
  

Дверь (Люди-тени) / The Door (Shadow people) (Мэттью Арнольд) [2013 г., Мистический триллер, BDRip 720p, Профессиональный многоголосый, Лицензия] pb.wtf

Дверь через торрент pb.wtf

Размер: 4.64 GB | Добавлен: 5 лет 8 мес. назад | Торрент скачан:237 раз
Скачать  

14-02-2015 11:57 Дверь Скачать торрент  

Дверь (Люди-тени) / The Door (Shadow people)Год выпуска: 2013
Страна: США / Infinity Media, Upload Films
Жанр: Мистический триллер
Продолжительность: 01:28:56
Перевод: Профессиональный многоголосый, Лицензия
Субтитры: English

Режиссер: Мэттью Арнольд
Продюссер: Майкл Оуховен, Роб Бэйкер, Джеймс Гибб
Сценарий: Мэттью Арнольд, Трэвис Рукс

В ролях: Даллас Робертс, Элисон Иствуд, Энн Дудек, Мария Боннер, Мэтти Липтак, Кристофер Берри

Описание: Ведущий радиошоу Чарли Кроу узнает в прямом эфире от одного из радиослушателей о неких Людях Теней, которые преследуют своих жертв и стали причиной уже многих смертей. Чарли берется расследовать так называемые «встречи» с таинственными созданиями и вскоре сам начинает ИХ видеть…

Качество: BDRip 720p
Формат: MKV
Видео кодек: MPEG-4 AVC
Аудио кодек: AC3
Видео: 1280x528, 6398 kbps, 23,976 fps
Аудио#1: Русский / 6 / 48 kHz / 448 kbps / 16 bit
Аудио#2: Английский / 6 / 48 kHz / 640 kbps / 16 bit







Общее
Уникальный идентификатор : 208746857027789040380535322700856871291 (0x9D0B2EA98D3DD41286304EE22F36C97B)
Полное имя : D:\uTorrent\The Door / Shadow people.BDRip.720p.mkv
Формат : Matroska
Версия формата : Version 2
Размер файла : 4.64 Гбайт
Продолжительность : 1 ч. 28 м.
Общий поток : 7368 Кбит/сек
Дата кодирования : UTC 2015-01-22 21:34:12
Программа кодирования : mkvmerge v7.5.0 ('Glass Culture') 64bit built on Jan 4 2015 16:48:44
Библиотека кодирования : libebml v1.3.1 + libmatroska v1.4.2
DURATION : 01:29:22.368000000
NUMBER_OF_FRAMES : 167574
NUMBER_OF_BYTES : 257393664
_STATISTICS_WRITING_APP : mkvmerge v7.5.0 ('Glass Culture') 64bit built on Jan 4 2015 16:48:44
_STATISTICS_WRITING_DATE_UTC : 2015-01-22 21:34:12
_STATISTICS_TAGS : BPS DURATION NUMBER_OF_FRAMES NUMBER_OF_BYTES

Видео
Идентификатор : 1
Формат : AVC
Формат/Информация : Advanced Video Codec
Профиль формата : High@L4.1
Параметр CABAC формата : Да
Параметр ReFrames формата : 5 кадров
Идентификатор кодека : V_MPEG4/ISO/AVC
Продолжительность : 1 ч. 29 м.
Битрейт : 6398 Кбит/сек
Ширина : 1280 пикселей
Высота : 528 пикселей
Соотношение сторон : 2,40:1
Режим частоты кадров : Постоянный
Частота кадров : 23,976 кадра/сек
Цветовое пространство : YUV
Субдискретизация насыщенности : 4:2:0
Битовая глубина : 8 бит
Тип развёртки : Прогрессивная
Бит/(Пиксели*Кадры) : 0.333
Размер потока : 3,33 Гбайт (72%)
Язык : English
Default : Да
Forced : Нет
DURATION : 01:29:30.165000000
NUMBER_OF_FRAMES : 128755
NUMBER_OF_BYTES : 3673991529
_STATISTICS_WRITING_APP : mkvmerge v7.5.0 ('Glass Culture') 64bit built on Jan 4 2015 16:48:44
_STATISTICS_WRITING_DATE_UTC : 2015-01-22 21:34:12
_STATISTICS_TAGS : BPS DURATION NUMBER_OF_FRAMES NUMBER_OF_BYTES

Аудио #1
Идентификатор : 2
Формат : AC-3
Формат/Информация : Audio Coding 3
Расширение режима : CM (complete main)
Параметр Endianness формата : Big
Идентификатор кодека : A_AC3
Продолжительность : 1 ч. 28 м.
Вид битрейта : Постоянный
Битрейт : 448 Кбит/сек
Каналы : 6 каналов
Расположение каналов : Front: L C R, Side: L R, LFE
Частота : 48,0 КГц
Битовая глубина : 16 бит
Метод сжатия : С потерями
Размер потока : 246 Мбайт (5%)
Default : Да
Forced : Нет

Аудио #2
Идентификатор : 3
Формат : AC-3
Формат/Информация : Audio Coding 3
Режим : 16
Параметр Endianness формата : Big
Идентификатор кодека : A_AC3
Продолжительность : 1 ч. 28 м.
Вид битрейта : Постоянный
Битрейт : 640 Кбит/сек
Каналы : 6 каналов
Расположение каналов : Front: L C R, Side: L R, LFE
Частота : 48,0 КГц
Битовая глубина : 16 бит
Метод сжатия : С потерями
Размер потока : 966 Мбайт (20%)
Язык : English
Default : Нет
Forced : Нет

Меню
00:00:00.000 : en:00:00:00.000
00:05:22.822 : en:00:05:22.822
00:09:30.361 : en:00:09:30.361
00:11:55.673 : en:00:11:55.673
00:16:27.153 : en:00:16:27.153
00:18:56.802 : en:00:18:56.802
00:24:13.827 : en:00:24:13.827
00:26:07.357 : en:00:26:07.357
00:32:09.344 : en:00:32:09.344
00:36:52.127 : en:00:36:52.127
00:41:43.126 : en:00:41:43.126
00:44:13.943 : en:00:44:13.943
00:50:08.464 : en:00:50:08.464
00:55:04.009 : en:00:55:04.009
01:00:28.625 : en:01:00:28.625
01:05:12.200 : en:01:05:12.200
01:10:02.949 : en:01:10:02.949
01:14:18.496 : en:01:14:18.496
01:20:20.441 : en:01:20:20.441
01:22:46.461 : en:01:22:46.461
Приятного просмотра! Не забывайте говорить спасибо! pb.wtf



Скачать Дверь через торрент http://i51.fastpic.ru/big/2013/0408/7d/6ac714cfbed9cf2e9149c27605888f7d.png Скачать фильм Дверь через торрент бесплантно в хорошем качестве Описание: Ведущий радиошоу Чарли Кроу узнает в прямом эфире от одного из радиослушателей о неких Людях Теней, которые преследуют своих ... 10 10 8
Торрент: Зарегистрирован [2015-02-14 11:57] · скачан: 237 раз
Статус: √ проверено
Размер: 4.64 GB
Как cкачать? Как скачать Дверь через торрент | qTorrent

% Раздел Тема Автор DL S | L
Фильмы 2019-2020 [DVDrip, WEB-DLRip, HDrip] (DUB, MVO) [ 1.42 GB ] За призрачной дверью / The Pale Door [2020 BDRip] - Twi7ter Скачать
31 | 4
Фильмы 2019-2020 [DVDrip, WEB-DLRip, HDrip] (DUB, MVO) [ 2.14 GB ] За призрачной дверью / The Pale Door [2020 BDRip-AVC] bober100 Скачать
3 | 0
Фильмы [HD 720p, 1080p] (Хороший звук DUB, MVO) [ 7.1 GB ] За призрачной дверью / The Pale Door [2020 BDRip 720p] bober100 Скачать
9 | 0
Фильмы (Blu-ray, BD-Remux, HDDVD) [ 26.6 GB ] За призрачной дверью / The Pale Door [2020 BD Remux 1080p] bober100 Скачать
3 | 0
Фильмы [HD 720p, 1080p] (Хороший звук DUB, MVO) [ 15.48 GB ] За призрачной дверью / The Pale Door [2020 BDRip 1080p] bober100 Скачать
2 | 0
Фильмы 2019-2020 [DVDrip, WEB-DLRip, HDrip] (DUB, MVO) [ 1.46 GB ] За призрачной дверью / The Pale Door [2020 BDRip] bober100 Скачать
12 | 0
Порно фильмы HD [ 7.16 GB ] ИСТОРИЯ ГОНЗО 2: ДЕНЬ ОТКРЫТЫХ ДВЕРЕЙ / A GONZO STORY 2: OPEN HOUSE [2015 All Sex Big Boobs Blondes Brunette Milfs Gonzo WEB-DL 1080p Оригинальный] nn99nn Скачать
1 | 0


Последний раз редактировалось: _Fenixx_ни мужик ни баба (2015-02-14 12:15), всего редактировалось 1 раз

28-11-2019 20:33  

Отключить всю рекламу на сайте

14-02-2015 12:05 Дверь Скачать торрент  

Вижу только что качают, а кто же раздает.pb.wtf



14-02-2015 12:17 Дверь Скачать торрент  

Erken писал(а):

Вижу только что качают, а кто же раздает.

Я раздал tirex731 и ушел с раздачи вернусь позже!!!pb.wtf



14-02-2015 12:51 Дверь Скачать торрент  

Erken писал(а):

Вижу только что качают, а кто же раздает.

Люди-тениpb.wtf



14-02-2015 14:09 Дверь Скачать торрент  

Erken писал(а):

Вижу только что качают, а кто же раздает.

Таксист Роман Капустин .pb.wtf



14-02-2015 14:37 Дверь Скачать торрент  

скриншот  
не первый раз уже, пред захотелось?
Если не встанете на раздачу, то отправлю её в корзину, а вы получите долгожданный пред.pb.wtf



14-02-2015 15:17 Дверь Скачать торрент  

Эээээ дайте скачать!!!pb.wtf



14-02-2015 20:53 Дверь Скачать торрент  

sarcasticpb.wtf



19-02-2015 11:37 Дверь Скачать торрент  

Очередная версия того почему здоровые люди умерают во сне и бла-бла-бла, короче говоря жалко своего зря потраченого времени на эту ерунду.Кто любит хорошие ужасы можете проходить мимо и не смотреть!pb.wtf



    Дорогой пользователь! Огромная просьба, поблагодарите релизера, оцените раздачу и оставьте свои комментарий, если Вы скачали Дверь через торрент бесплатно! Внесите свою лепту в развитие PiratBit!
    Комментировать посты могут только пользователи прошедшие не сложную регистрацию
    Показать сообщения:    

    Дверь через торрент
    Скачать бесплатно Дверь
    Дверь скачать торрент
    Дверь смотреть онлайн
    Cкачать фильм Дверь бесплатно
    Дверь скачать торрент в хорошем качестве
    Дверь смотреть онлайн бесплатно в хорошем качестве


    Вы не можете начинать темы
    Вы не можете отвечать на сообщения
    Вы не можете редактировать свои сообщения
    Вы не можете удалять свои сообщения
    Вы не можете голосовать в опросах
    Вы не можете прикреплять файлы к сообщениям
    Вы можете скачивать файлы