Ссылка на приватное зеркало всего за 1$. Внимание количество ограничено!!!

iTunes

iTunes

iTunes

1

iTunes

iTunes

iTunes

iTunes

iTunes

30
pack

$ от Little Big

ВАЖНО

!!Акция!!

Alien_RageХит недели

RePack

Resident Evil 21

ИГРА 18+

pack

RePack

jed

!!Акция!!

Alien_Rage

RePack

fifa19

RePack

Assassins Creed: Odyssey

RePack

NEED FOR SPEED™ PAYBACK

4 сезон

9 сезон

Бесстыжие 9 сезон

Все сериалы

все сериалы на PB.wtf

RePack

FAR CRY 5
  

В одиночестве / Alone (Бхушан Патель) [2015 г., мистика, ужасы, WEB-DLRip 720p, Любительский одноголосый][АнтиХрЭст] pb.wtf

В одиночестве через торрент pb.wtf

Размер: 2.31 GB | Добавлен: 5 лет 4 мес. назад | Торрент скачан:106 раз
Скачать  

14-02-2015 13:01 В одиночестве Скачать торрент  

В одиночестве / AloneГод выпуска: 2015
Страна: Индия/ Panorama Studios
Жанр: мистика, ужасы
Продолжительность: 02:10:12
Перевод: Любительский (одноголосый) [АнтиХрЭст]
Субтитры: Отсутствуют

Режиссер: Бхушан Патель

В ролях: Бипаша Басу, Каран Гровер, Сулабха Эрийа, Закир Хуссэйн, Нина Гупта, Nilima Priya, Санджай Шарма

Описание: Красавица Санджана ведёт спокойную жизнь вместе со своим мужем Кабиром. Однажды, раздаётся звонок из Кералы, родного города Санджаны и ей сообщают, что её мама парализована. Приехав туда, девушка начинает чувствовать присутствие своей умершей сестры-близнеца, которая пытается ей что-то сказать...

Качество: WEB-DLRip 720p
Формат: MKV
Видео кодек: MPEG4 AVC
Аудио кодек: AC3 Dolby Digital
Видео: 1280x544, 2234 kbps, 24.000 fps, 0.134 bpp
Аудио#1: Русский / 2 / 48 kHz / 256 kbps / 16 bit








Общее
Уникальный идентификатор : 324310693107159853988826485622308048687 (0xF3FBF7AEFF75754945B1E07B71B38F2F)
Полное имя : D:\uTorrent\Alone.2015.WEB-DLRip.720p.mkv
Формат : Matroska
Версия формата : Version 2
Размер файла : 2,31 Гбайт
Продолжительность : 2 ч. 10 м.
Общий поток : 2541 Кбит/сек
Дата кодирования : UTC 2015-02-12 00:03:21
Программа кодирования : XviD4PSP 6.0 / 54.29.105
Библиотека кодирования : XviD4PSP 6.0 / 54.29.105

Видео
Идентификатор : 1
Формат : AVC
Формат/Информация : Advanced Video Codec
Профиль формата : High@L4.1
Параметр CABAC формата : Да
Параметр ReFrames формата : 3 кадра
Идентификатор кодека : V_MPEG4/ISO/AVC
Продолжительность : 2 ч. 10 м.
Битрейт : 2234 Кбит/сек
Номинальный битрейт : 2429 Кбит/сек
Ширина : 1280 пикселей
Высота : 544 пикселя
Соотношение сторон : 2,35:1
Режим частоты кадров : Постоянный
Частота кадров : 24,000 кадра/сек
Цветовое пространство : YUV
Субдискретизация насыщенности : 4:2:0
Битовая глубина : 8 бит
Тип развёртки : Прогрессивная
Бит/(Пиксели*Кадры) : 0.134
Размер потока : 2,03 Гбайт (88%)
Библиотека кодирования : x264 core 128 r2216M 198a7ea
Настройки программы : cabac=1 / ref=4 / deblock=1:0:0 / analyse=0x3:0x133 / me=hex / subme=7 / psy=1 / psy_rd=1.00:0.20 / mixed_ref=1 / me_range=16 / chroma_me=1 / trellis=1 / 8x8dct=1 / cqm=0 / deadzone=19,25 / fast_pskip=1 / chroma_qp_offset=-2 / threads=4 / lookahead_threads=1 / sliced_threads=0 / nr=10 / decimate=1 / interlaced=0 / bluray_compat=0 / constrained_intra=0 / bframes=9 / b_pyramid=1 / b_adapt=2 / b_bias=0 / direct=3 / weightb=1 / open_gop=0 / weightp=2 / keyint=240 / keyint_min=24 / scenecut=40 / intra_refresh=0 / rc_lookahead=40 / rc=cbr / mbtree=1 / bitrate=2429 / ratetol=1.0 / qcomp=0.60 / qpmin=10 / qpmax=51 / qpstep=4 / vbv_maxrate=2429 / vbv_bufsize=2429 / nal_hrd=none / ip_ratio=1.40 / aq=1:1.00
Default : Да
Forced : Нет
DURATION : 02:10:12.209000000
NUMBER_OF_FRAMES : 187493
NUMBER_OF_BYTES : 2573753968
_STATISTICS_WRITING_APP : mkvmerge v7.6.0 ('Garden of Dreams') 32bit built on Feb 8 2015 12:51:39
_STATISTICS_WRITING_DATE_UTC : 2015-02-11 15:10:52
_STATISTICS_TAGS : BPS DURATION NUMBER_OF_FRAMES NUMBER_OF_BYTES

Аудио
Идентификатор : 2
Формат : AC-3
Формат/Информация : Audio Coding 3
Расширение режима : CM (complete main)
Параметр Endianness формата : Big
Идентификатор кодека : A_AC3
Продолжительность : 2 ч. 10 м.
Вид битрейта : Постоянный
Битрейт : 256 Кбит/сек
Каналы : 2 канала
Расположение каналов : Front: L R
Частота : 48,0 КГц
Битовая глубина : 16 бит
Метод сжатия : С потерями
Задержка видео : 27 мс.
Размер потока : 238 Мбайт (10%)
Язык : Russian
Default : Да
Forced : Нет

Приятного просмотра! Не забывайте говорить спасибо! pb.wtf



Скачать В одиночестве через торрент http://i63.fastpic.ru/big/2015/0214/d8/95c623043aed3bc9fec868adc679f2d8.jpg Скачать фильм В одиночестве через торрент бесплантно в хорошем качестве Описание: Красавица Санджана ведёт спокойную жизнь вместе со своим мужем Кабиром. Однажды, раздаётся звонок из Кералы, родного города ... 9.8 10 6
Info! Золотая раздача, скачанное не засчитывается.
Торрент: Зарегистрирован [2015-02-14 13:01] · скачан: 106 раз
Статус: T временная
Размер: 2.31 GB
Как cкачать? Как скачать В одиночестве через торрент | qTorrent

% Раздел Тема Автор DL S | L
T Фильмы (мультфильмы) cо спонсором показа (Новинки AVI/MKV) [ 3.83 GB ] Одиночество в глухую ночь / Alone in the Dead of Night [2017 WEB-DL 720p] MVO ["Синема УС"] bober100 Скачать
1 | 0
T Фильмы (мультфильмы) cо спонсором показа (Новинки AVI/MKV) [ 1.37 GB ] Одиночество в глухую ночь / Alone in the Dead of Night [2017 WEB-DLRip] MVO ["Синема УС"] bober100 Скачать
1 | 0
Зарубежные сериалы [ 2.42 GB ] В одиночестве вместе / Alone Together / Сезон: 2 / Серии: 1-10 из 10 [2018 WEB-DLRip] MVO [Jaskier] bober100 Скачать
1 | 0

28-11-2019 20:33  

Отключить всю рекламу на сайте

26-02-2015 16:50 В одиночестве Скачать торрент  

Рейтинг Кинопоиска 3,00. Печаль...pb.wtf



    Дорогой пользователь! Огромная просьба, поблагодарите релизера, оцените раздачу и оставьте свои комментарий, если Вы скачали В одиночестве через торрент бесплатно! Внесите свою лепту в развитие PiratBit!
    Комментировать посты могут только пользователи прошедшие не сложную регистрацию
    Показать сообщения:    

    В одиночестве через торрент
    Скачать бесплатно В одиночестве
    В одиночестве скачать торрент
    В одиночестве смотреть онлайн
    Cкачать фильм В одиночестве бесплатно
    В одиночестве скачать торрент в хорошем качестве
    В одиночестве смотреть онлайн бесплатно в хорошем качестве


    Вы не можете начинать темы
    Вы не можете отвечать на сообщения
    Вы не можете редактировать свои сообщения
    Вы не можете удалять свои сообщения
    Вы не можете голосовать в опросах
    Вы не можете прикреплять файлы к сообщениям
    Вы можете скачивать файлы