2 сезон

iTunes

MVO

1

2 сезон

iTunes

iTunes

1 сезон

RePack

30

Новинка

ВАЖНО

ИГРА 18+

pack

RePack

MK11
pack

Легкие деньги

RePack

jed

RePack

fifa19

RePack

RDR2

RePack

NEED FOR SPEED™ PAYBACK

4 сезон

9 сезон

Бесстыжие 9 сезон

Все сериалы

все сериалы на PB.wtf

RePack

FAR CRY 5

Anonymous, доброй ночи, мы не успеваем собрать деньги на оплату серверов за декабрь и январь, помогите нам пожалуйста в это трудное время. В качестве благодарности мы отключим Вам всю рекламу на сайте (укажите свой ник в строку Ваше имя)!

×
  
Magnet ссылка

Коммандоc / Commando (Марк Л. Лестер) [1985, боевик, триллер, BDRip 720p / 60 fps] MVO, DVO, AVO от NNNB pb.wtf

Коммандоc через торрент pb.wtf

Размер: 9.97 GB | Добавлен: 5 лет 11 мес. назад | Торрент скачан:168 раз
Скачать  

14-02-2015 16:08 Коммандоc Скачать торрент  

Информация о фильме
Русское название: Коммандоc / Коммандо
Оригинальное название: Commando
Год выхода: 1985
Жанр: боевик, триллер
Режиссер: Марк Л. Лестер
Выпущено: США
Продолжительность: 01:30:16
Перевод: Профессиональный (многоголосый, закадровый), Профессиональный (двухголосый, закадровый), Автоский (одноголосый)
В ролях: Арнольд Шварценеггер, Рэй Доун Чонг, Дэн Хедайя, Вернон Уэллс, Джеймс Олсон, Дэвид Патрик Келли, Алисса Милано, Билл Дьюк, Дрю Снайдер, Шарон Виатт, Майкл Делано, Боб Майнор, Майкл Адамс, Карлос Сервантес, Ленни Джулиано, Чарльз Мишик, Челси Филд, Джули Хайек, Хенк Калия, Уолтер Скотт, Грег Вейн Элам.




Сюжет фильма
Бывший командир спецотряда, участвовавшего в секретных операциях на Ближнем Востоке, СССР и Центральной Америке, полковник в отставке Джон Матрикс, под другим именем, живёт в большом доме, вдали от города, вместе со своей одиннадцатилетней дочерью Дженни, пока её не похищает бывший товарищ Джона…
Файл
Качество: BDRip 720p (исходник Blu-ray Disc Remux)
Видео: 1280x694, ~11.8 Мбит/сек, 59.940 кадр/сек, AVC, x264, High@L4.1, 1.85:1, 0.222 Бит/[Пиксели*Кадры]
Аудио 1: AC-3, 448 Кбит/сек, 6 канала(ов), 48,0 КГц - Многоголосый закадровый, Киномания / Русский
Аудио 2: AC-3, 192 Кбит/сек, 2 канала(ов), 48,0 КГц - Многоголосый закадровый, R5 / Русский
Аудио 3: AC-3, 448 Кбит/сек, 6 канала(ов), 48,0 КГц - Многоголосый закадровый, ОРТ / Русский
Аудио 4: AC-3, 448 Кбит/сек, 6 канала(ов), 48,0 КГц - Двухголосый закадровый, П. Гланц и И. Королева / Русский
Аудио 5: AC-3, 448 Кбит/сек, 6 канала(ов), 48,0 КГц - Одноголосый закадровый, А.Гаврилов / Русский
Аудио 6: AC-3, 192 Кбит/сек, 2 канала(ов), 48,0 КГц - Одноголосый закадровый, В. Горчаков / Русский
Аудио 7: AC-3, 192 Кбит/сек, 2 канала(ов), 48,0 КГц - Одноголосый закадровый, Ю. Толбин / Русский
Аудио 8: AC-3, 448 Кбит/сек, 6 канала(ов), 48,0 КГц - Одноголосый закадровый, Б. Федоров / Русский
Аудио 9: AC-3, 448 Кбит/сек, 6 канала(ов), 48,0 КГц - Одноголосый закадровый, Гоблин - Полный Пэ / Русский / Присутствует ненормативная лексика
Аудио 10: AC-3, 448 Кбит/сек, 6 канала(ов), 48,0 КГц - Оригинал / Английский
Субтитры: Русские | Полные (2 вида), Английские | Полные
Форсированные субтитры: Нет
Чаптеры (Главы): Есть[/ul]



Автор Рипа: Сообщество:
Format : Matroska
Format version : Version 2
File size : 9.97 GiB
Duration : 1h 30mn
Overall bit rate : 15.8 Mbps
Movie name : Коммандо.(1985).BDRip.720p.[envy].[60fps]
Encoded date : UTC 2015-02-14 14:19:29
Writing application : mkvmerge v5.8.0 ('No Sleep / Pillow') built on Sep 2 2012 15:37:04
Writing library : libebml v1.2.3 + libmatroska v1.3.0

Video
ID : 1
Format : AVC
Format/Info : Advanced Video Codec
Format profile : High@L4.1
Format settings, CABAC : Yes
Format settings, ReFrames : 9 frames
Codec ID : V_MPEG4/ISO/AVC
Duration : 1h 30mn
Bit rate : 11.8 Mbps
Width : 1 280 pixels
Height : 694 pixels
Display aspect ratio : 1.85:1
Frame rate mode : Constant
Frame rate : 59.880 fps
Original frame rate : 59.940 fps
Color space : YUV
Chroma subsampling : 4:2:0
Bit depth : 8 bits
Scan type : Progressive
Bits/(Pixel*Frame) : 0.222
Stream size : 7.44 GiB (75%)
Title : Коммандо.(1985).BDRip.720p.[envy].[60fps]
Writing library : x264 core 130 r2273 b3065e6
Encoding settings : cabac=1 / ref=9 / deblock=1:0:0 / analyse=0x3:0x133 / me=umh / subme=11 / psy=1 / psy_rd=1.00:0.00 / mixed_ref=1 / me_range=32 / chroma_me=1 / trellis=2 / 8x8dct=1 / cqm=0 / deadzone=21,11 / fast_pskip=0 / chroma_qp_offset=-2 / threads=12 / lookahead_threads=2 / sliced_threads=0 / nr=0 / decimate=1 / interlaced=0 / bluray_compat=0 / constrained_intra=0 / bframes=8 / b_pyramid=2 / b_adapt=2 / b_bias=0 / direct=3 / weightb=1 / open_gop=0 / weightp=2 / keyint=250 / keyint_min=25 / scenecut=40 / intra_refresh=0 / rc=crf / mbtree=0 / crf=18.0 / qcomp=0.60 / qpmin=0 / qpmax=69 / qpstep=4 / ip_ratio=1.40 / pb_ratio=1.30 / aq=2:1.00
Language : English
Default : Yes
Forced : No

Audio #1
ID : 2
Format : AC-3
Format/Info : Audio Coding 3
Mode extension : CM (complete main)
Format settings, Endianness : Big
Codec ID : A_AC3
Duration : 1h 30mn
Bit rate mode : Constant
Bit rate : 448 Kbps
Channel(s) : 6 channels
Channel positions : Front: L C R, Side: L R, LFE
Sampling rate : 48.0 KHz
Bit depth : 16 bits
Compression mode : Lossy
Stream size : 289 MiB (3%)
Title : MVO Kinomanija
Language : Russian
Default : Yes
Forced : No

Audio #2
ID : 3
Format : AC-3
Format/Info : Audio Coding 3
Mode extension : CM (complete main)
Format settings, Endianness : Big
Codec ID : A_AC3
Duration : 1h 30mn
Bit rate mode : Constant
Bit rate : 192 Kbps
Channel(s) : 2 channels
Channel positions : Front: L R
Sampling rate : 48.0 KHz
Bit depth : 16 bits
Compression mode : Lossy
Stream size : 124 MiB (1%)
Title : MVO R5
Language : Russian
Default : No
Forced : No

Audio #3
ID : 4
Format : AC-3
Format/Info : Audio Coding 3
Mode extension : CM (complete main)
Format settings, Endianness : Big
Codec ID : A_AC3
Duration : 1h 30mn
Bit rate mode : Constant
Bit rate : 448 Kbps
Channel(s) : 6 channels
Channel positions : Front: L C R, Side: L R, LFE
Sampling rate : 48.0 KHz
Bit depth : 16 bits
Compression mode : Lossy
Stream size : 289 MiB (3%)
Title : MVO OPT
Language : Russian
Default : No
Forced : No

Audio #4
ID : 5
Format : AC-3
Format/Info : Audio Coding 3
Mode extension : CM (complete main)
Format settings, Endianness : Big
Codec ID : A_AC3
Duration : 1h 30mn
Bit rate mode : Constant
Bit rate : 448 Kbps
Channel(s) : 6 channels
Channel positions : Front: L C R, Side: L R, LFE
Sampling rate : 48.0 KHz
Bit depth : 16 bits
Compression mode : Lossy
Stream size : 289 MiB (3%)
Title : DVO Glanc i Koroleva
Language : Russian
Default : No
Forced : No

Audio #5
ID : 6
Format : AC-3
Format/Info : Audio Coding 3
Mode extension : CM (complete main)
Format settings, Endianness : Big
Codec ID : A_AC3
Duration : 1h 30mn
Bit rate mode : Constant
Bit rate : 448 Kbps
Channel(s) : 6 channels
Channel positions : Front: L C R, Side: L R, LFE
Sampling rate : 48.0 KHz
Bit depth : 16 bits
Compression mode : Lossy
Stream size : 289 MiB (3%)
Title : AVO Gavrilov
Language : Russian
Default : No
Forced : No

Audio #6
ID : 7
Format : AC-3
Format/Info : Audio Coding 3
Mode extension : CM (complete main)
Format settings, Endianness : Big
Codec ID : A_AC3
Duration : 1h 30mn
Bit rate mode : Constant
Bit rate : 192 Kbps
Channel(s) : 2 channels
Channel positions : Front: L R
Sampling rate : 48.0 KHz
Bit depth : 16 bits
Compression mode : Lossy
Stream size : 124 MiB (1%)
Title : AVO Gorchakov
Language : Russian
Default : No
Forced : No

Audio #7
ID : 8
Format : AC-3
Format/Info : Audio Coding 3
Mode extension : CM (complete main)
Format settings, Endianness : Big
Codec ID : A_AC3
Duration : 1h 30mn
Bit rate mode : Constant
Bit rate : 192 Kbps
Channel(s) : 2 channels
Channel positions : Front: L R
Sampling rate : 48.0 KHz
Bit depth : 16 bits
Compression mode : Lossy
Stream size : 124 MiB (1%)
Title : AVO Tolbin
Language : Russian
Default : No
Forced : No

Audio #8
ID : 9
Format : AC-3
Format/Info : Audio Coding 3
Mode extension : CM (complete main)
Format settings, Endianness : Big
Codec ID : A_AC3
Duration : 1h 30mn
Bit rate mode : Constant
Bit rate : 448 Kbps
Channel(s) : 6 channels
Channel positions : Front: L C R, Side: L R, LFE
Sampling rate : 48.0 KHz
Bit depth : 16 bits
Compression mode : Lossy
Stream size : 289 MiB (3%)
Title : AVO Fedorov
Language : Russian
Default : No
Forced : No

Audio #9
ID : 10
Format : AC-3
Format/Info : Audio Coding 3
Mode extension : CM (complete main)
Format settings, Endianness : Big
Codec ID : A_AC3
Duration : 1h 30mn
Bit rate mode : Constant
Bit rate : 448 Kbps
Channel(s) : 6 channels
Channel positions : Front: L C R, Side: L R, LFE
Sampling rate : 48.0 KHz
Bit depth : 16 bits
Compression mode : Lossy
Stream size : 289 MiB (3%)
Title : AVO Goblin
Language : Russian
Default : No
Forced : No

Audio #10
ID : 11
Format : AC-3
Format/Info : Audio Coding 3
Mode extension : CM (complete main)
Format settings, Endianness : Big
Codec ID : A_AC3
Duration : 1h 30mn
Bit rate mode : Constant
Bit rate : 448 Kbps
Channel(s) : 6 channels
Channel positions : Front: L C R, Side: L R, LFE
Sampling rate : 48.0 KHz
Bit depth : 16 bits
Compression mode : Lossy
Stream size : 289 MiB (3%)
Title : Eng
Language : English
Default : No
Forced : No

Text #1
ID : 12
Format : UTF-8
Codec ID : S_TEXT/UTF8
Codec ID/Info : UTF-8 Plain Text
Title : R5 full
Language : Russian
Default : No
Forced : No

Text #2
ID : 13
Format : UTF-8
Codec ID : S_TEXT/UTF8
Codec ID/Info : UTF-8 Plain Text
Title : Puchkov full
Language : Russian
Default : No
Forced : No

Text #3
ID : 14
Format : UTF-8
Codec ID : S_TEXT/UTF8
Codec ID/Info : UTF-8 Plain Text
Title : English full
Language : English
Default : No
Forced : No

Menu
00:00:00.000 : :Chapter 01
00:04:14.837 : :Chapter 02
00:08:16.078 : :Chapter 03
00:11:26.352 : :Chapter 04
00:16:35.703 : :Chapter 05
00:19:16.780 : :Chapter 06
00:22:46.948 : :Chapter 07
00:26:42.267 : :Chapter 08
00:29:03.241 : :Chapter 09
00:32:14.766 : :Chapter 10
00:37:39.799 : :Chapter 11
00:43:59.219 : :Chapter 12
00:49:14.993 : :Chapter 13
00:53:45.889 : :Chapter 14
00:56:32.347 : :Chapter 15
00:59:14.509 : :Chapter 16
01:04:45.381 : :Chapter 17
01:06:58.556 : :Chapter 18
01:10:21.967 : :Chapter 19
01:12:52.618 : :Chapter 20
01:17:48.246 : :Chapter 21
01:19:48.200 : :Chapter 22
01:24:37.363 : :Chapter 23
01:26:55.293 : :Chapter 24

ВНИМАНИЕ!!!
Все другие релизы размещеные в сети, похожие размером, настройками, качеством, являются плагиатом и дублированием оригинального файла.
Просто появились "грамотные люди" которые сами нормально сделать не могут, и просто в тупую правят файл, подписывая его своим именем, или группой.
Я думаю вам не без разницы что вы скачиваете, но знайте где появляются релизы с искусственно увеличенной частотой кадров от NNNB
Оригинальные раздачи от группы подписаны так же: "NNNB"pb.wtf



Скачать Коммандоc через торрент http://www.firepic.org/images/2015-02/14/axix0ilqu4r7.png Скачать фильм Коммандоc через торрент бесплантно в хорошем качестве В ролях: Арнольд Шварценеггер, Рэй Доун Чонг, Дэн Хедайя, Вернон Уэллс, Джеймс Олсон, Дэвид Патрик Келли, Алисса Милано, Билл Дьюк, Дрю ... 9.8 10 17
Info! Золотая раздача, скачанное не засчитывается.
Торрент: Зарегистрирован [2015-02-14 16:08] · скачан: 168 раз
Статус: √ проверено
Размер: 9.97 GB
Как cкачать? Как скачать Коммандоc через торрент | UTorrent

28-11-2019 20:33  

Отключить всю рекламу на сайте

    Дорогой пользователь! Огромная просьба, поблагодарите релизера, оцените раздачу и оставьте свои комментарий, если Вы скачали Коммандоc через торрент бесплатно! Внесите свою лепту в развитие PiratBit!
    Комментировать посты могут только пользователи прошедшие не сложную регистрацию
    Показать сообщения:    

    Коммандоc через торрент
    Скачать бесплатно Коммандоc
    Коммандоc скачать торрент
    Коммандоc смотреть онлайн
    Cкачать фильм Коммандоc бесплатно
    Коммандоc скачать торрент в хорошем качестве
    Коммандоc смотреть онлайн бесплатно в хорошем качестве


    Вы не можете начинать темы
    Вы не можете отвечать на сообщения
    Вы не можете редактировать свои сообщения
    Вы не можете удалять свои сообщения
    Вы не можете голосовать в опросах
    Вы не можете прикреплять файлы к сообщениям
    Вы можете скачивать файлы