Ссылка на приватное зеркало нашего сайта всего за 1$. Внимание количество ограничено!!!

2 сезон

iTunes

1 сезон

1

2 сезон

2 сезон

iTunes

1 сезон

RePack

30

Новинка

ВАЖНО

ИГРА 18+

pack

RePack

MK11
pack

Забери бонус

RePack

jed

!!Акция!!

Alien_Rage

RePack

fifa19

RePack

Assassins Creed: Odyssey

RePack

NEED FOR SPEED™ PAYBACK

4 сезон

9 сезон

Бесстыжие 9 сезон

Все сериалы

все сериалы на PB.wtf

RePack

FAR CRY 5
  

Ребёнок (Алексей Вакулов ) [2012, короткометражка, драма, DVBRip] pb.wtf

Ребёнок через торрент pb.wtf

Размер: 549 MB | Добавлен: 5 лет 9 мес. назад | Торрент скачан:49 раз
Скачать  

14-02-2015 19:29 Ребёнок Скачать торрент  


Ребёнок
«Когда реальность становится такой же беззащитной как... РЕБЕНОК»

ИНФОРМАЦИЯ:
Год выпуска:2012
Страна:Россия
Жанр:короткометражка, драма
Продолжительность00:27:58
Перевод:Не требуется
Режиссер:Алексей Вакулов

В Ролях:


Дарина Тянюгина, Эльвира Болгова, Анна Асташкина, Ксения Маршанская, Вадим Кошмай, Елена Сысоева

ОПИСАНИЕ:
У каждого ребенка есть мечта. Главная героиня Варя мечтает, чтобы поскорее вернулась Мама. Еще Варя хочет заниматься балетом, танцами. Этим мечтам нет места в реальности и тогда они переходят в сны. Может быть еще и поэтому Вареньке так сильно хочется спать...


ТЕХ.ДАННЫЕ:
Качество: DVBRip
Формат: AVI | Видео кодек: DivX 5 | Аудио кодек: AC3
Видео: ✦720x320 (2.25:1)✦ 2437 kbps✦ 25 fps✦ 0,423 bpp
Аудио: ✦2.0 ✦ 48 kHz ✦ 192 kbps ✦ 16 bit ✦

Код:

General
Complete name                            : D:\Торенты\Rebenok_2012.avi
Format                                   : AVI
Format/Info                              : Audio Video Interleave
File size                                : 549 MiB
Duration                                 : 27mn 58s
Overall bit rate                         : 2 747 Kbps
Writing application                      : VirtualDubMod 1.5.10.3 | www.virtualdub-fr.org || (build 2550/release)
Writing library                          : VirtualDubMod build 2550/release

Video
ID                                       : 0
Format                                   : MPEG-4 Visual
Format profile                           : Advanced Simple@L5
Format settings, BVOP                    : 1
Format settings, QPel                    : No
Format settings, GMC                     : No warppoints
Format settings, Matrix                  : Default (MPEG)
Codec ID                                 : DX50
Codec ID/Hint                            : DivX 5
Duration                                 : 27mn 58s
Bit rate                                 : 2 437 Kbps
Width                                    : 720 pixels
Height                                   : 320 pixels
Display aspect ratio                     : 2.25:1
Frame rate                               : 25.000 fps
Color space                              : YUV
Chroma subsampling                       : 4:2:0
Bit depth                                : 8 bits
Scan type                                : Progressive
Compression mode                         : Lossy
Bits/(Pixel*Frame)                       : 0.423
Stream size                              : 488 MiB (89%)
Writing library                          : XviD 1.2.1 (UTC 2008-12-04)

Audio
ID                                       : 1
Format                                   : AC-3
Format/Info                              : Audio Coding 3
Mode extension                           : CM (complete main)
Codec ID                                 : 2000
Duration                                 : 27mn 58s
Bit rate mode                            : Constant
Bit rate                                 : 192 Kbps
Channel(s)                               : 2 channels
Channel positions                        : Front: L R
Sampling rate                            : 48.0 KHz
Bit depth                                : 16 bits
Compression mode                         : Lossy
Stream size                              : 38.4 MiB (7%)
Alignment                                : Split accross interleaves

Скриншоты:


© Оформление by Ворон
pb.wtf



Скачать Ребёнок через торрент http://pic.kartinco.top/images/6/ordi9.jpg Скачать фильм Ребёнок через торрент бесплантно в хорошем качестве Е:У каждого ребенка есть мечта. Главная героиня Варя мечтает, чтобы поскорее вернулась Мама. Еще Варя хочет заниматься балетом, танцами. ... 10 10 4
Торрент: Зарегистрирован [2015-02-14 19:29] · скачан: 49 раз
Статус: √ проверено
Размер: 549 MB
Как cкачать? Как скачать Ребёнок через торрент | qTorrent

% Раздел Тема Автор DL S | L
Фильмы (WEB-DL 720p, 1080p) [ 3.29 GB ] Давай сделаем ребенка / Conception [2011 Мело WEB-DL 1080p] MVO bober100 Скачать
6 | 0
Наши сериалы [ 7.04 GB ] Чужой ребенок / Серии: 1-4 из 4 [2019 Мело WEB-DL 1080p] bober100 Скачать
1 | 0
Наши сериалы [ 5 GB ] Чужой ребенок / Серии: 1-4 из 4 [2019 Мело WEB-DL 720p] bober100 Скачать
1 | 0
Наши сериалы [ 2.47 GB ] Чужой ребенок / Серии: 1-4 из 4 [2019 Мело WEB-DLRip] bober100 Скачать
1 | 0
Наши сериалы [ 2.43 GB ] Чужой ребенок / Серии: 1-4 из 4 [2019 Мело WEB-DLRip-AVC] bober100 Скачать
1 | 0
Детективы, Боевики, Триллеры [ 417 MB ] Джон Харт - Последний ребенок [Кирилл Головин 2020 80 kbps MP3] bober100 Скачать
1 | 0
Фильмы (WEB-DL 720p, 1080p) [ 3.9 GB ] Рождественский принц: Королевский ребёнок / A Christmas Prince: The Royal Baby [2019 WEB-DL 1080p] killermax2013 Скачать
1 | 0

28-11-2019 20:33  

Отключить всю рекламу на сайте

    Дорогой пользователь! Огромная просьба, поблагодарите релизера, оцените раздачу и оставьте свои комментарий, если Вы скачали Ребёнок через торрент бесплатно! Внесите свою лепту в развитие PiratBit!
    Комментировать посты могут только пользователи прошедшие не сложную регистрацию
    Показать сообщения:    

    Ребёнок через торрент
    Скачать бесплатно Ребёнок
    Ребёнок скачать торрент
    Ребёнок смотреть онлайн
    Cкачать фильм Ребёнок бесплатно
    Ребёнок скачать торрент в хорошем качестве
    Ребёнок смотреть онлайн бесплатно в хорошем качестве


    Вы не можете начинать темы
    Вы не можете отвечать на сообщения
    Вы не можете редактировать свои сообщения
    Вы не можете удалять свои сообщения
    Вы не можете голосовать в опросах
    Вы не можете прикреплять файлы к сообщениям
    Вы можете скачивать файлы