Ссылка на приватное зеркало всего за 1$. Внимание количество ограничено!!!

iTunes

iTunes

iTunes

1

iTunes

iTunes

iTunes

iTunes

iTunes

30
pack

$ от Little Big

ВАЖНО

!!Акция!!

Alien_RageХит недели

RePack

Resident Evil 21

ИГРА 18+

pack

RePack

jed

!!Акция!!

Alien_Rage

RePack

fifa19

RePack

Assassins Creed: Odyssey

RePack

NEED FOR SPEED™ PAYBACK

4 сезон

9 сезон

Бесстыжие 9 сезон

Все сериалы

все сериалы на PB.wtf

RePack

FAR CRY 5
  

Кровавый библейский лагерь / Bloody Bloody Bible Camp (Vito Trabucco) (2012, , WEB-DL 720p]Любительское (двухголосое) [den904 & DeadSno] pb.wtf

Кровавый библейский лагерь через торрент pb.wtf

Размер: 2.65 GB | Добавлен: 5 лет 4 мес. назад | Торрент скачан:14 раз
Скачать  

15-02-2015 05:40 Кровавый библейский лагерь Скачать торрент  

Информация о фильме

Название: Кровавый библейский лагерь

Оригинальное название: Bloody Bloody Bible Camp

Год выхода: 2012

Выпущено: США

Продолжительность: 01:30:35

Озвучивание: Любительское (двухголосое) [den904 & DeadSno]

Жанр: ужасы, комедия

Режиссер: Vito Trabucco

В ролях: Рэджи Бэннистер, Тим Салливан, Рон Джереми, Ивет Корвеа, Мэттью Эйден, Джессика Соннеборн, Дебора Венегас, Джефф Дилан Грэхэм, Элисса Бри, Дэвид С. Хэйес

Описание: В 1977 году, группа молодых, сексуально озабоченных, христиан отправляется на веселый уик-энд в библейский лагерь. Их нечестивые шалости раздражают сумасшедшую монахиню-садистку, прозванную "Сестра Мэри-Потрошительница". Один за другим, юные грешники расплачиваются кровью за свои греховные поступки. 7мь лет спустя, другая группа почитателей Библии вновь приезжает в тот библейский лагерь, где произошли эти страшные события. Никто из них не обратил внимания на деревенские россказни о том, что случилось 7мь лет назад. Но умерла ли сестра Мэри-Потрошительница или просто поджидает оступившихся христиан?



Файл

Качество: WEB-DL 720p
Формат: MKV | Видео кодек: AVC | Аудио кодек: AC3
Видео: 3906 kb/s, 1280x720- 23,976 кадра/сек

Аудио: AC3, 192 kb/s (2 ch) 48,0 КГц
Общее
Уникальный идентификатор : 238404387037606018002929945008001915206 (0xB35B03C91308096DA1B8527722A21946)
Полное имя : D:\Торенты\Krovavyj.biblejskij.lager.2012.L2.WEB-DL.720p.mkv
Формат : Matroska
Версия формата : Version 4 / Version 2
Размер файла : 2,65 Гбайт
Продолжительность : 1 ч. 30 м.
Общий поток : 4181 Кбит/сек
Дата кодирования : UTC 2015-02-14 23:30:34
Программа кодирования : mkvmerge v6.1.0 ('Old Devil') built on Mar 4 2013 09:10:42
Библиотека кодирования : libebml v1.3.0 + libmatroska v1.4.0

Видео
Идентификатор : 1
Формат : AVC
Формат/Информация : Advanced Video Codec
Профиль формата : High@L3.1
Параметр CABAC формата : Нет
Параметр ReFrames формата : 2 кадра
Идентификатор кодека : V_MPEG4/ISO/AVC
Продолжительность : 1 ч. 30 м.
Битрейт : 3906 Кбит/сек
Ширина : 1280 пикселей
Высота : 720 пикселей
Соотношение сторон : 16:9
Режим частоты кадров : Постоянный
Частота кадров : 23,976 кадра/сек
Цветовое пространство : YUV
Субдискретизация насыщенности : 4:2:0
Битовая глубина : 8 бит
Тип развёртки : Прогрессивная
Бит/(Пиксели*Кадры) : 0.177
Размер потока : 2,47 Гбайт (93%)
Язык : English
Default : Да
Forced : Нет
Основные цвета : BT.709
Характеристики трансфера : BT.709
Коэффициенты матрицы : BT.709
colour_range : Limited

Аудио
Идентификатор : 2
Формат : AC-3
Формат/Информация : Audio Coding 3
Расширение режима : CM (complete main)
Параметр Endianness формата : Big
Идентификатор кодека : A_AC3
Продолжительность : 1 ч. 30 м.
Вид битрейта : Постоянный
Битрейт : 192 Кбит/сек
Каналы : 2 канала
Расположение каналов : Front: L R
Частота : 48,0 КГц
Битовая глубина : 16 бит
Метод сжатия : С потерями
Размер потока : 124 Мбайт (5%)
Язык : Russian
Default : Да
Forced : Нет




pb.wtf



Скачать Кровавый библейский лагерь через торрент http://i57.fastpic.ru/big/2015/0215/4c/86ac2009dbbf30ad4951d0edd924b84c.jpg Скачать фильм Кровавый библейский лагерь через торрент бесплантно в хорошем качестве Описание: В 1977 году, группа молодых, сексуально озабоченных, христиан отправляется на веселый уик-энд в библейский лагерь. Их ... 10 10 2
Торрент: Зарегистрирован [2015-02-15 05:40] · скачан: 14 раз
Статус: √ проверено
Размер: 2.65 GB
Как cкачать? Как скачать Кровавый библейский лагерь через торрент | qTorrent

% Раздел Тема Автор DL S | L
Фильмы 2012 [ 1.37 GB ] Кровавый библейский лагерь / Bloody Bloody Bible Camp [den904 & DeadSno] Ворон Скачать
1 | 0

28-11-2019 20:33  

Отключить всю рекламу на сайте

    Дорогой пользователь! Огромная просьба, поблагодарите релизера, оцените раздачу и оставьте свои комментарий, если Вы скачали Кровавый библейский лагерь через торрент бесплатно! Внесите свою лепту в развитие PiratBit!
    Комментировать посты могут только пользователи прошедшие не сложную регистрацию
    Показать сообщения:    

    Кровавый библейский лагерь через торрент
    Скачать бесплатно Кровавый библейский лагерь
    Кровавый библейский лагерь скачать торрент
    Кровавый библейский лагерь смотреть онлайн
    Cкачать фильм Кровавый библейский лагерь бесплатно
    Кровавый библейский лагерь скачать торрент в хорошем качестве
    Кровавый библейский лагерь смотреть онлайн бесплатно в хорошем качестве


    Вы не можете начинать темы
    Вы не можете отвечать на сообщения
    Вы не можете редактировать свои сообщения
    Вы не можете удалять свои сообщения
    Вы не можете голосовать в опросах
    Вы не можете прикреплять файлы к сообщениям
    Вы можете скачивать файлы