Ссылка на приватное зеркало нашего сайта всего за 1$. Внимание количество ограничено!!!

2 сезон

iTunes

1 сезон

1

iTunes

iTunes

iTunes

1 сезон

RePack

30

ИГРА 18+

pack

ВАЖНО

!!Акция!!

Alien_RageХит недели

RePack

MK11
pack

Забери бонус

RePack

jed

!!Акция!!

Alien_Rage

RePack

fifa19

RePack

Assassins Creed: Odyssey

RePack

NEED FOR SPEED™ PAYBACK

4 сезон

9 сезон

Бесстыжие 9 сезон

Все сериалы

все сериалы на PB.wtf

RePack

FAR CRY 5
  

Полёт домой / С сердцем наперегонки / Flying Home (Доминик Дерюддер ) [2014, мелодрама, BDRip 1080p, Дубляж] / Чистый звук pb.wtf

Полёт домой через торрент pb.wtf

Размер: 9.38 GB | Добавлен: 5 лет 8 мес. назад | Торрент скачан:90 раз
Скачать  

15-02-2015 06:28 Полёт домой Скачать торрент  


Полёт домой / С сердцем наперегонки / Flying Home


ИНФОРМАЦИЯ:
Год выпуска:2014
Страна:Бельгия, Германия
Жанр:мелодрама
Продолжительность01:37:20
Перевод:Дубляж - [Чистый звук]
Примечание: Присутствуют несколько фраз без перевода, на них вшиты русские субтитры.
Субтитры: русские, английские, английские (Forced), английские (SDH), French, Spanish,
Режиссер:Доминик Дерюддер

В Ролях:


Джейми Дорнан (Colin), Энтони Хэд (Colin's Father), Нуман Акар (Karadeniz), Макс Пиркис (Jason), Али Сулиман (Sheikh), Шэрон Мофан (Mother Colin), Митчелл Маллен (Walden), Ян Деклер (Jos Pauwels), Гене Бервутс, Элине Ван дер Фелден (Celia), Йоссе де Паув (Priest), Charlotte De Bruyne (Isabelle Pauwels)

ОПИСАНИЕ:
История о Колине, молодом честолюбивом корпоративном рейдере, и Изабель, фламандской студентке.
Богатый арабский шейх, один из тех, кто может стать клиентом Колина, - большой поклонник голубей. Он уже пытался купить голубя-чемпиона из Фландрии, но хозяин птицы Йос упрямо отклоняет все его предложения. Пытаясь привлечь бизнес шейха на свою сторону, Колин предлагает заключить соглашение: если у него получится убедить Йоса продать голубя, то шейх подпишет договор с его компанией.
Так Колин оказывается во Фландрии, в небольшой деревеньке, где выдает себя за учителя, занятого поисками могилы погибшего во время Первой мировой войны прадеда. Здесь Колин встречает Изабель...

  • Мировая премьера:2 апреля 2014

    ТЕХ.ДАННЫЕ:
    Качество: BDRip 1080p
    Формат: MKV ✦ Видео кодек: AVC ✦ Аудио кодек: AC3, DTS
    Видео: 1920x802 (2.40:1)| 11814 kbps| 23,976 fps| 0,320 bpp
    Аудио №1: русский | 2.0 | 48 kHz | 192 kbps | 16 bit | ||
    Аудио №2: английский | 5.1 | 48 kHz | 1510 kbps | 24 bit |
    Навигация по главам: есть


    Код:

    General
    Unique ID                                : 196741822266980632288461564106487467402 (0x940318C0223FF077B86E5006CFC18D8A)
    Complete name                            : D:\Торенты\P0let.D0m0y.2014.D.BDRip.1080p.mkv
    Format                                   : Matroska
    Format version                           : Version 4 / Version 2
    File size                                : 9.38 GiB
    Duration                                 : 1h 37mn
    Overall bit rate                         : 13.8 Mbps
    Encoded date                             : UTC 2015-02-03 19:29:17
    Writing application                      : mkvmerge v6.1.0 ('Old Devil') built on Mar  4 2013 09:10:42
    Writing library                          : libebml v1.3.0 + libmatroska v1.4.0

    Video
    ID                                       : 1
    Format                                   : AVC
    Format/Info                              : Advanced Video Codec
    Format profile                           : High@L4.1
    Format settings, CABAC                   : Yes
    Format settings, ReFrames                : 5 frames
    Codec ID                                 : V_MPEG4/ISO/AVC
    Duration                                 : 1h 37mn
    Bit rate                                 : 11.8 Mbps
    Width                                    : 1 920 pixels
    Height                                   : 802 pixels
    Display aspect ratio                     : 2.40:1
    Frame rate                               : 23.976 fps
    Color space                              : YUV
    Chroma subsampling                       : 4:2:0
    Bit depth                                : 8 bits
    Scan type                                : Progressive
    Bits/(Pixel*Frame)                       : 0.320
    Stream size                              : 8.03 GiB (86%)
    Writing library                          : x264 core 142 r2431+42 c69a006 tMod [8-bit@all X86_64]
    Encoding settings                        : cabac=1 / ref=5 / deblock=1:-3:-3 / analyse=0x3:0x133 / me=esa / subme=10 / psy=1 / fade_compensate=0.00 / psy_rd=0.90:0.00 / mixed_ref=1 / me_range=32 / chroma_me=1 / trellis=2 / 8x8dct=1 / cqm=0 / deadzone=21,11 / fast_pskip=0 / chroma_qp_offset=-2 / threads=12 / lookahead_threads=2 / sliced_threads=0 / nr=0 / decimate=1 / interlaced=0 / bluray_compat=0 / constrained_intra=0 / fgo=0 / bframes=7 / b_pyramid=2 / b_adapt=2 / b_bias=0 / direct=3 / weightb=1 / open_gop=0 / weightp=2 / keyint=241 / keyint_min=23 / scenecut=40 / intra_refresh=0 / rc_lookahead=60 / rc=crf / mbtree=0 / crf=15.7000 / qcomp=0.60 / qpmin=0:0:0 / qpmax=69:69:69 / qpstep=4 / vbv_maxrate=50000 / vbv_bufsize=62500 / crf_max=0.0 / nal_hrd=none / filler=0 / ip_ratio=1.30 / pb_ratio=1.20 / aq=4:0.90 / aq-sensitivity=10.00 / aq-factor=1.00:1.00:1.00 / aq2=0 / aq3=0 / zones=135115,140020,q=26
    Language                                 : English
    Default                                  : Yes
    Forced                                   : No

    Audio #1
    ID                                       : 2
    Format                                   : AC-3
    Format/Info                              : Audio Coding 3
    Mode extension                           : CM (complete main)
    Codec ID                                 : A_AC3
    Duration                                 : 1h 37mn
    Bit rate mode                            : Constant
    Bit rate                                 : 192 Kbps
    Channel(s)                               : 2 channels
    Channel positions                        : Front: L R
    Sampling rate                            : 48.0 KHz
    Bit depth                                : 16 bits
    Compression mode                         : Lossy
    Stream size                              : 134 MiB (1%)
    Language                                 : Russian
    Default                                  : Yes
    Forced                                   : No

    Audio #2
    ID                                       : 3
    Format                                   : DTS
    Format/Info                              : Digital Theater Systems
    Codec ID                                 : A_DTS
    Duration                                 : 1h 37mn
    Bit rate mode                            : Constant
    Bit rate                                 : 1 510 Kbps
    Channel(s)                               : 6 channels
    Channel positions                        : Front: L C R, Side: L R, LFE
    Sampling rate                            : 48.0 KHz
    Bit depth                                : 24 bits
    Compression mode                         : Lossy
    Stream size                              : 1.03 GiB (11%)
    Language                                 : English
    Default                                  : No
    Forced                                   : No

    Text #1
    ID                                       : 4
    Format                                   : UTF-8
    Codec ID                                 : S_TEXT/UTF8
    Codec ID/Info                            : UTF-8 Plain Text
    Language                                 : Russian
    Default                                  : Yes
    Forced                                   : No

    Text #2
    ID                                       : 5
    Format                                   : UTF-8
    Codec ID                                 : S_TEXT/UTF8
    Codec ID/Info                            : UTF-8 Plain Text
    Language                                 : English
    Default                                  : No
    Forced                                   : No

    Text #3
    ID                                       : 6
    Format                                   : UTF-8
    Codec ID                                 : S_TEXT/UTF8
    Codec ID/Info                            : UTF-8 Plain Text
    Title                                    : Forced
    Language                                 : English
    Default                                  : No
    Forced                                   : No

    Text #4
    ID                                       : 7
    Format                                   : UTF-8
    Codec ID                                 : S_TEXT/UTF8
    Codec ID/Info                            : UTF-8 Plain Text
    Title                                    : SDH
    Language                                 : English
    Default                                  : No
    Forced                                   : No

    Text #5
    ID                                       : 8
    Format                                   : UTF-8
    Codec ID                                 : S_TEXT/UTF8
    Codec ID/Info                            : UTF-8 Plain Text
    Language                                 : French
    Default                                  : No
    Forced                                   : No

    Text #6
    ID                                       : 9
    Format                                   : UTF-8
    Codec ID                                 : S_TEXT/UTF8
    Codec ID/Info                            : UTF-8 Plain Text
    Language                                 : Spanish
    Default                                  : No
    Forced                                   : No

    Menu
    00:00:00.000                             : :Chapter 1
    00:04:34.608                             : :Chapter 2
    00:09:49.672                             : :Chapter 3
    00:13:32.352                             : :Chapter 4
    00:16:34.701                             : :Chapter 5
    00:21:19.487                             : :Chapter 6
    00:26:40.015                             : :Chapter 7
    00:30:48.721                             : :Chapter 8
    00:36:26.434                             : :Chapter 9
    00:44:26.831                             : :Chapter 10
    00:51:11.610                             : :Chapter 11
    00:58:55.949                             : :Chapter 12
    01:04:06.550                             : :Chapter 13
    01:08:03.871                             : :Chapter 14
    01:12:08.533                             : :Chapter 15
    01:16:06.895                             : :Chapter 16
    01:20:59.896                             : :Chapter 17
    01:26:08.829                             : :Chapter 18
    01:30:08.778                             : :Chapter 19
    01:34:10.000                             : :Credits

    Скриншоты:


    © Оформление by Ворон
    pb.wtf



  • Скачать Полёт домой через торрент http://pic.kartinco.top/images/6/ordi9.jpg Скачать фильм Полёт домой через торрент бесплантно в хорошем качестве Е:История о Колине, молодом честолюбивом корпоративном рейдере, и Изабель, фламандской студентке.Богатый арабский шейх, один из тех, кто ... 10 10 2
    Торрент: Зарегистрирован [2015-02-15 06:28] · скачан: 90 раз
    Статус: √ проверено
    Размер: 9.38 GB
    Как cкачать? Как скачать Полёт домой через торрент | qTorrent

    % Раздел Тема Автор DL S | L
    Фильмы 2014 [DVDrip, WEB-DLRip, HDrip] [ 1.37 GB ] Полёт домой / С сердцем наперегонки / Flying Home [2014 WEB-DLRip ] / Чистый звук Ворон Скачать
    1 | 0

    28-11-2019 20:33  

    Отключить всю рекламу на сайте

      Дорогой пользователь! Огромная просьба, поблагодарите релизера, оцените раздачу и оставьте свои комментарий, если Вы скачали Полёт домой через торрент бесплатно! Внесите свою лепту в развитие PiratBit!
      Комментировать посты могут только пользователи прошедшие не сложную регистрацию
      Показать сообщения:    

      Полёт домой через торрент
      Скачать бесплатно Полёт домой
      Полёт домой скачать торрент
      Полёт домой смотреть онлайн
      Cкачать фильм Полёт домой бесплатно
      Полёт домой скачать торрент в хорошем качестве
      Полёт домой смотреть онлайн бесплатно в хорошем качестве


      Вы не можете начинать темы
      Вы не можете отвечать на сообщения
      Вы не можете редактировать свои сообщения
      Вы не можете удалять свои сообщения
      Вы не можете голосовать в опросах
      Вы не можете прикреплять файлы к сообщениям
      Вы можете скачивать файлы