2 сезон

iTunes

MVO

1

2 сезон

iTunes

iTunes

1 сезон

RePack

30

Новинка

ВАЖНО

ИГРА 18+

pack

RePack

MK11
pack

Легкие деньги

RePack

jed

RePack

fifa19

RePack

RDR2

RePack

NEED FOR SPEED™ PAYBACK

4 сезон

9 сезон

Бесстыжие 9 сезон

Все сериалы

все сериалы на PB.wtf

RePack

FAR CRY 5

Anonymous, добрый вечер, мы не успеваем собрать деньги на оплату серверов за декабрь и январь, помогите нам пожалуйста в это трудное время. В качестве благодарности мы отключим Вам всю рекламу на сайте (укажите свой ник в строку Ваше имя)!

×
  
Magnet ссылка

Вифлеем / Bethlehem (Юваль Адлер ) [2013, триллер, драма, DVDRip, Профессиональный (двухголосый закадровый) Студия Эльром pb.wtf

Вифлеем через торрент pb.wtf

Размер: 1.42 GB | Добавлен: 5 лет 11 мес. назад | Торрент скачан:236 раз
Скачать  

15-02-2015 09:14 Вифлеем Скачать торрент  


Вифлеем / Bethlehem
«When you are playing both sides, who do you trust?»

ИНФОРМАЦИЯ:
Год выпуска:2014
Страна:Израиль, Германия, Бельгия
Жанр:триллер, драма
Продолжительность01:35:28
Перевод:Профессиональный (двухголосый закадровый) Студия Эльром
Режиссер:Юваль Адлер

В Ролях:


Tsahi Halevi (Razi), Shadi Mar'i (Sanfur), Hitham Omari (Badawi), Михал Штамлер (Einat), Тарик Копти (Abu Ibrahim), George Iskandar (Nasser), Yossi Eini (Levy), Дуду Нив (Shefler), Irad Rubinstain (Army Officer), Ibrahim Saqallah (Tayson), Карем Шакур (Abu Mussa), Efrat Shnap (Maya)

ОПИСАНИЕ:
Вифлеем» это напряженный израильский триллер, который расскажет зрителям историю офицера израильских спецслужб, Рази, который преуспел в вопросе вербовки агента — им становится молодой палестинский парень, Санфур. За несколько лет рабочих отношений агента и офицера спецслужб между ними завязывается настоящая мужская дружба, в которой Рази, приходящийся без малого отцом Санфуру, начинает испытывать к нему искренние отеческие чувства. Но, судьба поворачивается таким образом, что брат Санфура — Ибрагим, радикальный мусульманский деятель, организовывает крупный теракт в Иерусалиме. Командование Рази приказывает ему использовать Санфура как приманку, чтобы обезвредить Ибрагима.

  • Мировая премьера:28 августа 2013

    ТЕХ.ДАННЫЕ:
    Качество: DVDRip
    Формат: AVI ✦ Видео кодек: XviD ✦ Аудио кодек: AC3, MP3
    Видео: 704x400 (16:9)| 1656 kbps| 25 fps| 0,235 bpp
    Аудио №1: 2.0 | 48 kHz | 192 kbps |Русский
    Аудио №2: 2.0 | 48 kHz | 192 kbps | Иврит


    Код:

    General
    Complete name                            : D:\Торенты\Bethlehem.avi
    Format                                   : AVI
    Format/Info                              : Audio Video Interleave
    File size                                : 1.42 GiB
    Duration                                 : 1h 35mn
    Overall bit rate                         : 2 136 Kbps
    Writing application                      : VirtualDubMod 1.5.10.2 (build 2540/release)
    Writing library                          : VirtualDubMod build 2540/release

    Video
    ID                                       : 0
    Format                                   : MPEG-4 Visual
    Format profile                           : Advanced Simple@L5
    Format settings, BVOP                    : 2
    Format settings, QPel                    : No
    Format settings, GMC                     : No warppoints
    Format settings, Matrix                  : Default (H.263)
    Muxing mode                              : Packed bitstream
    Codec ID                                 : XVID
    Codec ID/Hint                            : XviD
    Duration                                 : 1h 35mn
    Bit rate                                 : 1 657 Kbps
    Width                                    : 704 pixels
    Height                                   : 400 pixels
    Display aspect ratio                     : 16:9
    Frame rate                               : 25.000 fps
    Color space                              : YUV
    Chroma subsampling                       : 4:2:0
    Bit depth                                : 8 bits
    Scan type                                : Progressive
    Compression mode                         : Lossy
    Bits/(Pixel*Frame)                       : 0.235
    Stream size                              : 1.10 GiB (78%)
    Writing library                          : XviD 64

    Audio #1
    ID                                       : 1
    Format                                   : MPEG Audio
    Format version                           : Version 1
    Format profile                           : Layer 3
    Codec ID                                 : 55
    Codec ID/Hint                            : MP3
    Duration                                 : 1h 35mn
    Bit rate mode                            : Constant
    Bit rate                                 : 192 Kbps
    Channel(s)                               : 2 channels
    Sampling rate                            : 48.0 KHz
    Compression mode                         : Lossy
    Stream size                              : 131 MiB (9%)
    Alignment                                : Aligned on interleaves

    Audio #2
    ID                                       : 2
    Format                                   : AC-3
    Format/Info                              : Audio Coding 3
    Mode extension                           : CM (complete main)
    Codec ID                                 : 2000
    Duration                                 : 1h 35mn
    Bit rate mode                            : Constant
    Bit rate                                 : 192 Kbps
    Channel(s)                               : 2 channels
    Channel positions                        : Front: L R
    Sampling rate                            : 48.0 KHz
    Bit depth                                : 16 bits
    Compression mode                         : Lossy
    Stream size                              : 131 MiB (9%)
    Alignment                                : Split accross interleaves

    Скриншоты:


    © Оформление by Ворон
    pb.wtf



  • Скачать Вифлеем через торрент http://pic.kartinco.top/images/6/ordi9.jpg Скачать фильм Вифлеем через торрент бесплантно в хорошем качестве Е:Вифлеем» это напряженный израильский триллер, который расскажет зрителям историю офицера израильских спецслужб, Рази, который преуспел в ... 8.9 10 18
    Торрент: Зарегистрирован [2015-02-15 09:14] · скачан: 236 раз
    Статус: √ проверено
    Размер: 1.42 GB
    Как cкачать? Как скачать Вифлеем через торрент | UTorrent

    28-11-2019 20:33  

    Отключить всю рекламу на сайте

    15-02-2015 11:43 Вифлеем Скачать торрент  

    Цитата:

    израильский триллер

    pb.wtf



    16-02-2015 00:58 Вифлеем Скачать торрент  

    komarenko писал(а):

    Цитата:

    израильский триллер


    И чего тут смешного? Вы смотрели его, что бы так критиковать?pb.wtf



    16-02-2015 13:24 Вифлеем Скачать торрент  

    gembird писал(а):

    komarenko писал(а):

    Цитата:

    израильский триллер


    И чего тут смешного? Вы смотрели его, что бы так критиковать?

    Я критиковал? Может быть сказал, что фильм .овно? вроде нет...
    Просто эта фраза доставила.))pb.wtf



      Дорогой пользователь! Огромная просьба, поблагодарите релизера, оцените раздачу и оставьте свои комментарий, если Вы скачали Вифлеем через торрент бесплатно! Внесите свою лепту в развитие PiratBit!
      Комментировать посты могут только пользователи прошедшие не сложную регистрацию
      Показать сообщения:    

      Вифлеем через торрент
      Скачать бесплатно Вифлеем
      Вифлеем скачать торрент
      Вифлеем смотреть онлайн
      Cкачать фильм Вифлеем бесплатно
      Вифлеем скачать торрент в хорошем качестве
      Вифлеем смотреть онлайн бесплатно в хорошем качестве


      Вы не можете начинать темы
      Вы не можете отвечать на сообщения
      Вы не можете редактировать свои сообщения
      Вы не можете удалять свои сообщения
      Вы не можете голосовать в опросах
      Вы не можете прикреплять файлы к сообщениям
      Вы можете скачивать файлы