Ссылка на приватное зеркало всего за 1$. Внимание количество ограничено!!!

iTunes

iTunes

iTunes

1

iTunes

iTunes

iTunes

iTunes

iTunes

30
pack

Новость дня

ВАЖНО

!!Акция!!

Alien_RageХит недели

RePack

Resident Evil 21

ИГРА 18+

pack

RePack

jed

!!Акция!!

Alien_Rage

RePack

fifa19

RePack

Assassins Creed: Odyssey

RePack

NEED FOR SPEED™ PAYBACK

4 сезон

9 сезон

Бесстыжие 9 сезон

Все сериалы

все сериалы на PB.wtf

RePack

FAR CRY 5
  

Плохая соседка (Роман Барабаш ) [2015, комедия, WEB-DLRip] pb.wtf

Плохая соседка через торрент pb.wtf

Размер: 1.37 GB | Добавлен: 5 лет 3 мес. назад | Торрент скачан:2215 раз
Скачать  

15-02-2015 09:20 Плохая соседка Скачать торрент  


Плохая соседка


ИНФОРМАЦИЯ:
Год выпуска:2015
Страна:Россия
Жанр:комедия
Продолжительность01:34:34
Перевод:Не требуется
Режиссер:Роман Барабаш

В Ролях:


Настя Задорожная (Катя), Илья Иосифов (Миша), Ада Роговцева (бабушка Кати), Валерия Ходос (Оля), Жанна Эппле (мама Оли), Сергей Калантай (Виктор), Таисия Шипилова (Света), Екатерина Гулякова (Аглая), Виталий Салий (Яша)

ОПИСАНИЕ:
23-х летняя Катя - гример из провинциального театра. Она привлекательна и хочет добиться успеха в жизни. Для этого она приезжает в большой город. Девушка уверена, что удача всегда на ее стороне, и у нее все получится! Иначе и быть не может! Но судьба все время испытывает Катин оптимизм на прочность. Не заблудится ли Катя в мире больших возможностей? Сможет ли понять, что по-настоящему, важно, а что - второстепенно? Сумеет ли выстоять?


ТЕХ.ДАННЫЕ:
Качество: WEB-DLRip
Формат: AVI ✦ Видео кодек: XviD ✦ Аудио кодек: AC3
Видео: 720x400 (16:9)| 1800 kbps| 25 fps| 0,248 bpp
Аудио: 2.0 | 48 kHz | 192 kbps | 16 bit |


Код:

General
Complete name                            : D:\Торенты\Plohaja.sosedka.WEB-DLRip.avi
Format                                   : AVI
Format/Info                              : Audio Video Interleave
File size                                : 1.37 GiB
Duration                                 : 1h 34mn
Overall bit rate                         : 2 071 Kbps
Writing application                      : VirtualDubMod 1.5.10.3 | www.virtualdub-fr.org || (build 2550/release)
Writing library                          : VirtualDubMod build 2550/release

Video
ID                                       : 0
Format                                   : MPEG-4 Visual
Format profile                           : Advanced Simple@L5
Format settings, BVOP                    : 2
Format settings, QPel                    : No
Format settings, GMC                     : No warppoints
Format settings, Matrix                  : Default (H.263)
Codec ID                                 : XVID
Codec ID/Hint                            : XviD
Duration                                 : 1h 34mn
Bit rate                                 : 1800  Kbps
Width                                    : 720 pixels
Height                                   : 400 pixels
Display aspect ratio                     : 16:9
Frame rate                               : 25.000 fps
Color space                              : YUV
Chroma subsampling                       : 4:2:0
Bit depth                                : 8 bits
Scan type                                : Progressive
Compression mode                         : Lossy
Bits/(Pixel*Frame)                       : 0.248
Stream size                              : 1.18 GiB (86%)
Writing library                          : XviD 1.2.1 (UTC 2008-12-04)

Audio
ID                                       : 1
Format                                   : AC-3
Format/Info                              : Audio Coding 3
Mode extension                           : CM (complete main)
Codec ID                                 : 2000
Duration                                 : 1h 34mn
Bit rate mode                            : Constant
Bit rate                                 : 192 Kbps
Channel(s)                               : 2 channels
Channel positions                        : Front: L R
Sampling rate                            : 48.0 KHz
Bit depth                                : 16 bits
Compression mode                         : Lossy
Stream size                              : 130 MiB (9%)
Alignment                                : Split accross interleaves

Скриншоты:


© Оформление by Ворон
pb.wtf



Скачать Плохая соседка через торрент http://pic.kartinco.top/images/6/ordi9.jpg Скачать фильм Плохая соседка через торрент бесплантно в хорошем качестве Е:23-х летняя Катя - гример из провинциального театра. Она привлекательна и хочет добиться успеха в жизни. Для этого она приезжает в ... 9.3 10 35
Торрент: Зарегистрирован [2015-02-15 09:20] · скачан: 2 215 раз
Статус: √ проверено
Размер: 1.37 GB
Как cкачать? Как скачать Плохая соседка через торрент | qTorrent

% Раздел Тема Автор DL S | L
Наши фильмы (HD, WEB-DL 720p, 1080p) [ 1.82 GB ] Плохая соседка [2015 WEB-DLRip 720p] [Русский] smaster Скачать
1 | 0
Наши фильмы (HD, WEB-DL 720p, 1080p) [ 1.89 GB ] Плохая соседка [2015 WEB-DLRip 1080p] Anonymous Скачать
1 | 0
Гонзо [ 697 MB ] Плохая задница детки-соседки / BadAss Barrio Babes [2012 Gonzo Oral Anal Facial Swallow A2M CumSwap DVDRip Оригинал] sheker187 Скачать
1 | 0

28-11-2019 20:33  

Отключить всю рекламу на сайте

    Дорогой пользователь! Огромная просьба, поблагодарите релизера, оцените раздачу и оставьте свои комментарий, если Вы скачали Плохая соседка через торрент бесплатно! Внесите свою лепту в развитие PiratBit!
    Комментировать посты могут только пользователи прошедшие не сложную регистрацию
    Показать сообщения:    

    Плохая соседка через торрент
    Скачать бесплатно Плохая соседка
    Плохая соседка скачать торрент
    Плохая соседка смотреть онлайн
    Cкачать фильм Плохая соседка бесплатно
    Плохая соседка скачать торрент в хорошем качестве
    Плохая соседка смотреть онлайн бесплатно в хорошем качестве


    Вы не можете начинать темы
    Вы не можете отвечать на сообщения
    Вы не можете редактировать свои сообщения
    Вы не можете удалять свои сообщения
    Вы не можете голосовать в опросах
    Вы не можете прикреплять файлы к сообщениям
    Вы можете скачивать файлы