Ссылка на приватное зеркало нашего сайта всего за 1$. Внимание количество ограничено!!!

2 сезон

iTunes

1 сезон

1

2 сезон

2 сезон

iTunes

1 сезон

RePack

30

Ultimate

ВАЖНО

ИГРА 18+

pack

RePack

MK11
pack

Забери бонус

RePack

jed

!!Акция!!

Alien_Rage

RePack

fifa19

RePack

Assassins Creed: Odyssey

RePack

NEED FOR SPEED™ PAYBACK

4 сезон

9 сезон

Бесстыжие 9 сезон

Все сериалы

все сериалы на PB.wtf

RePack

FAR CRY 5
  

Восход / Rise (Мэк Линдон) [2015 г., Драма, криминал, WEB-DLRip, Любительский двухголосый] [RAIM & NASTR] pb.wtf

Восход через торрент pb.wtf

Размер: 1.29 GB | Добавлен: 5 лет 9 мес. назад | Торрент скачан:274 раза
Скачать  

15-02-2015 11:19 Восход Скачать торрент  

Восход / RiseГод выпуска: 2015
Страна: Австралия, Vision Films Australia
Жанр: Драма, криминал
Продолжительность: 01:42:41
Перевод: Любительский двухголосый [RAIM & NASTR]
Субтитры: Отсутствуют

Режиссер: Мэк Линдон

В ролях: Джессика Грин, Стефани Мэй, Мартин Сакс, Рис Милн, Tade Adepoyibi, Камерон Колфилд, Джемма Лорелл, Джеймс Кирни, Курт Стоуэрс, Рози Кеог

Описание: История, основанная на реальных событиях, о молодом медбрате, ошибочно осужденном в изнасиловании. Лишенный своей карьеры и свободы, Уилл вынужден выживать в тюрьме строгого режима. Сюжет фильма развивается вокруг маловероятной дружбы с закаленным и опасным преступником Джимми и правовой битвы известного адвоката, который должен вернуть Уиллу его честное имя, найдя доказательства его невиновности.

Качество: WEB-DLRip
Формат: AVI
Видео кодек: XviD
Аудио кодек: AC3
Видео: 720х304, 1524 kbps, 24,000 fps, 0.290 bpp
Аудио#1: Русский / 2 / 48 kHz / 192 kbps / 16 bit







Общее
Полное имя : D:\uTorrent\Rise.2014.WEB-DLRip.avi
Формат : AVI
Формат/Информация : Audio Video Interleave
Размер файла : 1,29 Гбайт
Продолжительность : 1 ч. 42 м.
Общий поток : 1796 Кбит/сек
Программа кодирования : VirtualDubMod 1.5.10.2 (build 2540/release)
Библиотека кодирования : VirtualDubMod build 2540/release

Видео
Идентификатор : 0
Формат : MPEG-4 Visual
Профиль формата : Advanced Simple@L5
Параметр BVOP формата : 2
Параметр QPel формата : Нет
Параметр GMC формата : Без точки перехода
Параметр матрицы формата : Default (H.263)
Режим смешивания : Сжатый битовый поток
Идентификатор кодека : XVID
Идентификатор кодека/Подсказка : XviD
Продолжительность : 1 ч. 42 м.
Битрейт : 1524 Кбит/сек
Ширина : 720 пикселей
Высота : 304 пикселя
Соотношение сторон : 2,35:1
Частота кадров : 24,000 кадра/сек
Цветовое пространство : YUV
Субдискретизация насыщенности : 4:2:0
Битовая глубина : 8 бит
Тип развёртки : Прогрессивная
Метод сжатия : С потерями
Бит/(Пиксели*Кадры) : 0.290
Размер потока : 1,09 Гбайт (85%)
Библиотека кодирования : XviD 64

Аудио
Идентификатор : 1
Формат : AC-3
Формат/Информация : Audio Coding 3
Расширение режима : CM (complete main)
Параметр Endianness формата : Big
Идентификатор кодека : 2000
Продолжительность : 1 ч. 42 м.
Вид битрейта : Постоянный
Битрейт : 192 Кбит/сек
Каналы : 2 канала
Расположение каналов : Front: L R
Частота : 48,0 КГц
Битовая глубина : 16 бит
Метод сжатия : С потерями
Размер потока : 141 Мбайт (11%)
Выравнивание : Разделение по промежуткам

pb.wtf



Скачать Восход через торрент http://s018.radikal.ru/i527/1502/9d/4a659d847ec3.jpg Скачать фильм Восход через торрент бесплантно в хорошем качестве Описание: История, основанная на реальных событиях, о молодом медбрате, ошибочно осужденном в изнасиловании. Лишенный своей карьеры и ... 9.8 10 6
Торрент: Зарегистрирован [2015-02-15 11:19] · скачан: 274 раз
Статус: √ проверено
Размер: 1.29 GB
Как cкачать? Как скачать Восход через торрент | qTorrent

% Раздел Тема Автор DL S | L
Ultra HD (UHD: 2K, 4K, 8K) — видео сверхвысокой чёткости [ 61.77 GB ] Звёздные войны: Скайуокер. Восход / Star Wars: Episode IX - The Rise of Skywalker [2019 UHD Blu-ray 2160p] DUB sheker187 Скачать
2 | 0
Фильмы [HD 720p, 1080p] (Хороший звук DUB, MVO) [ 5.94 GB ] Звёздные войны: Скайуокер. Восход / Star Wars: Episode IX - The Rise of Skywalker [2019 BDRip 720p ] от ExKinoRay morfyi Скачать
2 | 0
Фильмы [HD 720p, 1080p] (Хороший звук DUB, MVO) [ 7.39 GB ] Звёздные войны: Скайуокер. Восход / Star Wars: Episode IX - The Rise of Skywalker [2019 BDRip 720p Custom AVO] от ExKinoRay morfyi Скачать
3 | 0
Фильмы (HD 720p, 1080p) (48-60 fps) [ 4.47 GB ] Звездные войны: Скайуокер. Восход / Star Wars: Episode IX - The Rise of Skywalker [2019 BDRip 720p / 60 FPS ] от R.G. HD-Films slaventi-69 Скачать
3 | 1
3D Фильмы [ 15.88 GB ] Звёздные войны: Скайуокер. Восход 3Д / Star Wars: Episode IX - The Rise of Skywalker 3D [2019 BDRip 1080p ] DUB bober100 Скачать
1 | 0
3D Фильмы [ 28.57 GB ] Звёздные войны: Скайуокер. Восход в 3Д / Star Wars: Episode IX - The Rise of Skywalker 3D [2019 BDRip 1080p] OverUnder / Вертикальная стереопара () serega768 Скачать
1 | 0
Фильмы (Blu-ray, BD-Remux, HDDVD) [ 44.32 GB ] Звёздные войны: Скайуокер. Восход / Star Wars: Episode IX - The Rise of Skywalker [2019 BD Remux 1080p ] bober100 Скачать
1 | 0

28-11-2019 20:33  

Отключить всю рекламу на сайте

15-02-2015 21:17 Восход Скачать торрент  

Сказка...pb.wtf



    Дорогой пользователь! Огромная просьба, поблагодарите релизера, оцените раздачу и оставьте свои комментарий, если Вы скачали Восход через торрент бесплатно! Внесите свою лепту в развитие PiratBit!
    Комментировать посты могут только пользователи прошедшие не сложную регистрацию
    Показать сообщения:    

    Восход через торрент
    Скачать бесплатно Восход
    Восход скачать торрент
    Восход смотреть онлайн
    Cкачать фильм Восход бесплатно
    Восход скачать торрент в хорошем качестве
    Восход смотреть онлайн бесплатно в хорошем качестве


    Вы не можете начинать темы
    Вы не можете отвечать на сообщения
    Вы не можете редактировать свои сообщения
    Вы не можете удалять свои сообщения
    Вы не можете голосовать в опросах
    Вы не можете прикреплять файлы к сообщениям
    Вы можете скачивать файлы