Ссылка на приватное зеркало нашего сайта всего за 1$. Внимание количество ограничено!!!

2 сезон

iTunes

1 сезон

1

2 сезон

2 сезон

iTunes

1 сезон

RePack

30

Ultimate

ВАЖНО

ИГРА 18+

pack

RePack

MK11
pack

Забери бонус

RePack

jed

!!Акция!!

Alien_Rage

RePack

fifa19

RePack

Assassins Creed: Odyssey

RePack

NEED FOR SPEED™ PAYBACK

4 сезон

9 сезон

Бесстыжие 9 сезон

Все сериалы

все сериалы на PB.wtf

RePack

FAR CRY 5
  

Спираль / Helix / Сезон: 2 / Серии 1-13 из 13 (Брэд Тернер / Brad Turner) [2015, США, Канада, фантастика, триллер, WEB-DLRip, MVO] [LostFilm] pb.wtf

Спираль через торрент pb.wtf

Размер: 5.3 GB | Добавлен: 5 лет 6 мес. назад | Торрент скачан:124 раза
Скачать  

15-02-2015 21:25 Спираль Скачать торрент  



❋ СПИРАЛЬ ❋

Информация о фильме:

✹ Название: Спираль
✹ Оригинальное название: Helix
✹ Год выхода: 2015
✹ Жанр: фантастика, триллер
✹ Режиссер: Дуан Кларк, Майк Рол, Брэд Тернер
✹ В ролях: Билл Кэмпбелл, Джордан Хэйес, Кира Загорский, Марк Ганиме, Хироюки Санада, Meegwun Fairbrother, Нил Напье, Лучана Карро, Джулиан Кэйси, Кристиан Джада и др.


Описание фильма:

Смертельный вирус, оказывающий небывалое разрушительное воздействие на организм человека, косит ряды учёных исследовательской базы в Арктике. Группа учёных из Центра по Контролю за Заболеваниями направлена туда расследовать причины эпидемии, и в результате вынуждена вести борьбу за спасение всего человечества.



✹ Страна: США
✹ Продолжительность: ~ 00:43:00 серия
✹ Перевод: Профессиональный (многоголосый, закадровый)
- LostFilm



Информация о файле:

✹ Кодек: XviD
✹ Формат: AVI
✹ Качество: WEB-DLRip
✹ Видео: ~ 1500 kbps, 720x400 (16:9), 23,976 fps
✹ Аудио RU: mp3, 48.0 KHz, 2 ch, 192 kbps
✹ Субтитры: нет
Когда раздача ведётся путём добавления новых серий, при каждом добавлении создётся новый торрент. Чтобы начать докачку новой серии, пользователям необходимо сделать следующее:
(1) остановить скачивание,
(2) удалить старый торрент у себя из клиента (старые серии удалять не надо),
(3) скачать новый торрент и запустить его у себя в клиенте вместо старого, при этом указать клиенту путь в старую папку, куда и должно происходить скачивание новых серий.
Ваш клиент при этом должен произвести хеширование (проверку) старой папки (если не производит сам - помогите ему сделать это), и будет докачивать только те серии, которых у вас ещё нет. Старые серии при этом не удаляются, а продолжают раздаваться!
Eсли вы уже удалили старые серии, то предотвратить повторную закачку старых серий можно, отжав галочку в соответсвующих местах при запуске нового торрента. По возможности, желательно не удалять старые серии как можно дольше, чтобы релизёр не столько продолжал раздавать старые серии, а смог сконцентрироваться на новых.
Общее
Полное имя : D:\uTorrent\Helix (S02) LostFilm\Helix.S02E01.rus.LostFilm.TV.avi
Формат : AVI
Формат/Информация : Audio Video Interleave
Размер файла : 470 Мбайт
Продолжительность : 41 м.
Режим общего битрейта : Переменный
Общий поток : 1572 Кбит/сек
Программа кодирования : Nandub v1.0rc2
Библиотека кодирования : Nandub build 1853/release

Видео
Идентификатор : 0
Формат : MPEG-4 Visual
Профиль формата : Advanced Simple@L5
Параметр BVOP формата : Нет
Параметр QPel формата : Нет
Параметр GMC формата : Без точки перехода
Параметр матрицы формата : Default (H.263)
Идентификатор кодека : XVID
Идентификатор кодека/Подсказка : XviD
Продолжительность : 41 м.
Битрейт : 1371 Кбит/сек
Ширина : 720 пикселей
Высота : 400 пикселей
Соотношение сторон : 16:9
Частота кадров : 23,976 кадра/сек
Цветовое пространство : YUV
Субдискретизация насыщенности : 4:2:0
Битовая глубина : 8 бит
Тип развёртки : Прогрессивная
Метод сжатия : С потерями
Бит/(Пиксели*Кадры) : 0.199
Размер потока : 410 Мбайт (87%)
Библиотека кодирования : XviD 1.2.1 (UTC 2008-12-04)

Аудио
Идентификатор : 1
Формат : MPEG Audio
Версия формата : Version 1
Профиль формата : Layer 3
Режим : Joint stereo
Расширение режима : MS Stereo
Идентификатор кодека : 55
Идентификатор кодека/Подсказка : MP3
Продолжительность : 41 м.
Вид битрейта : Переменный
Битрейт : 192 Кбит/сек
Каналы : 2 канала
Частота : 48,0 КГц
Метод сжатия : С потерями
Размер потока : 56,2 Мбайт (12%)
Выравнивание : Соединение по промежуткам
Продолжительность промежутка : 24 мс. (0,58 видеокадр)
Время предзагрузки промежутка : 490 мс.
Библиотека кодирования : LAME3.97b
Настройки программы : -m j -V 4 -q 3 -lowpass 18.6 --abr 192


Торрент обновлен! Добавлена 5 серия сериала! Просьба перекачайте торрент! Приятного просмотра и не забывайте про спасибо!!!pb.wtf



Скачать Спираль через торрент http://i59.fastpic.ru/big/2014/0209/ce/e44c47c6fed4ecbee31426e7485cccce.jpg Скачать фильм Спираль через торрент бесплантно в хорошем качестве Описание фильма:Смертельный вирус, оказывающий небывалое разрушительное воздействие на организм человека, косит ряды учёных ... 10 10 6
Info! Золотая раздача, скачанное не засчитывается.
Торрент: Зарегистрирован [2015-05-08 05:43] · скачан: 124 раз
Статус: √ проверено
Размер: 5.3 GB
Как cкачать? Как скачать Спираль через торрент | qTorrent

% Раздел Тема Автор DL S | L
Зарубежные сериалы [ 22.58 GB ] Спираль / Helix / Сезон: 2 / Серии 1-13 из 13 [2015 WEB-DL 1080p MVO] [BaibaKo] GEKADOL Скачать
1 | 0
Зарубежные сериалы [ 7.88 GB ] Спираль / Helix / Сезон: 2 / Серии 1-13 из 13 [2015 WEB-DLRip MVO] [BaibaKo] GEKADOL Скачать
1 | 1
Зарубежные сериалы [ 16.33 GB ] Спираль / Helix / Сезон: 2 / Серии 1-13 из 13 [2015 WEB-DLRip 720p MVO] [LostFilm] GEKADOL Скачать
1 | 0
Зарубежные сериалы [ 18.38 GB ] Спираль / Helix / Сезон: 2 / Серии 1-13 из 13 [2015 WEB-DL 720p MVO] [AlexFilm] GEKADOL Скачать
1 | 0
Зарубежные сериалы [ 23.17 GB ] Спираль / Helix / Сезон: 2 / Серии 1-13 из 13 [2015 WEB-DLRip 1080p] MVO [LostFilm] GEKADOL Скачать
1 | 0
Зарубежные сериалы [ 6.36 GB ] Спираль / Helix / Сезон: 2 / Серии 1-13 из 13 [2015 WEB-DLRip MVO] [AlexFilm] GEKADOL Скачать
1 | 0

28-11-2019 20:33  

Отключить всю рекламу на сайте

    Дорогой пользователь! Огромная просьба, поблагодарите релизера, оцените раздачу и оставьте свои комментарий, если Вы скачали Спираль через торрент бесплатно! Внесите свою лепту в развитие PiratBit!
    Комментировать посты могут только пользователи прошедшие не сложную регистрацию
    Показать сообщения:    

    Спираль через торрент
    Скачать бесплатно Спираль
    Спираль скачать торрент
    Спираль смотреть онлайн
    Cкачать фильм Спираль бесплатно
    Спираль скачать торрент в хорошем качестве
    Спираль смотреть онлайн бесплатно в хорошем качестве


    Вы не можете начинать темы
    Вы не можете отвечать на сообщения
    Вы не можете редактировать свои сообщения
    Вы не можете удалять свои сообщения
    Вы не можете голосовать в опросах
    Вы не можете прикреплять файлы к сообщениям
    Вы можете скачивать файлы