2 сезон

iTunes

MVO

1

2 сезон

iTunes

iTunes

1 сезон

RePack

30

Новинка

ВАЖНО

ИГРА 18+

pack

RePack

MK11
pack

Легкие деньги

RePack

jed

RePack

fifa19

RePack

RDR2

RePack

NEED FOR SPEED™ PAYBACK

4 сезон

9 сезон

Бесстыжие 9 сезон

Все сериалы

все сериалы на PB.wtf

RePack

FAR CRY 5

Anonymous, доброй ночи, мы не успеваем собрать деньги на оплату серверов за декабрь и январь, помогите нам пожалуйста в это трудное время. В качестве благодарности мы отключим Вам всю рекламу на сайте (укажите свой ник в строку Ваше имя)!

×
  
Magnet ссылка

10 мгновений судьбы / The Turning (Джонатан Ауф Дер Хайди , Тони Эйрс , Клер ) [2013, драма, WEB-DLRip, Профессиональный (многоголосый)[Позитив] pb.wtf

10 мгновений судьбы через торрент pb.wtf

Размер: 2.05 GB | Добавлен: 5 лет 11 мес. назад | Торрент скачан:56 раз
Скачать  

16-02-2015 00:06 10 мгновений судьбы Скачать торрент  


10 мгновений судьбы / The Turning


Информация:
Год выпуска:2013
Страна: Австралия
Жанр:драма
Продолжительность01:46:31
Перевод:Профессиональный (многоголосый)[Позитив]
Режиссер:Джонатан Ауф Дер Хайди , Тони Эйрс , Клер

В ролях:


Роуз Бирн (Rae), Кейт Бланшетт (Gail Lang), Хьюго Уивинг (Bob Lang), Мэтью Нэйбл (Max), Мирра Фолкс (Fay), Ричард Роксбург (Vic Lang), Миранда Отто (Sherry), Каллэн Мулвей (David), Харрисон Гилбертсон (Vic Lang), Дэниэл Уилли (Vic), Майлс Поллард (Dan), Колин Фрилз (рассказчик (segment 'Ash Wednesday'))

Описание:
Фильм представляет собой 10 отдельных короткометражных фильмов, поставленных разными режиссерами. Сюжеты этих историй, на первый взгляд, не связаны между собой, и каждый из эпизодов создан в своем уникальном стиле. Хотя есть многое, что их объединяет...

  • Мировая премьера:3 августа 2013


    Тех.Данные:
    Качество: WEB-DLRip
    Формат:AVI
    Видео кодек: XviD
    Аудио кодек:AC3
    Видео: XviD, 720x400 (16:9), 1984 kbps, 24 fps, 0,271 bpp
    Аудио №1: AC3 / 5.1 / 48 kHz / 384 kbps / RUS
    Аудио №2: AC3 / 5.1 / 48 kHz / 384 kbps / ENG


    Код:

    General
    Complete name                            : D:\Торенты\10.mngnoveniy.sydbu.2014.WEB-DLRip.2100Mb.avi
    Format                                   : AVI
    Format/Info                              : Audio Video Interleave
    File size                                : 2.05 GiB
    Duration                                 : 1h 46mn
    Overall bit rate                         : 2 759 Kbps
    Writing application                      : VirtualDubMod 1.5.10.2 (build 2540/release)
    Writing library                          : VirtualDubMod build 2540/release

    Video
    ID                                       : 0
    Format                                   : MPEG-4 Visual
    Format profile                           : Advanced Simple@L5
    Format settings, BVOP                    : 2
    Format settings, QPel                    : No
    Format settings, GMC                     : No warppoints
    Format settings, Matrix                  : Default (MPEG)
    Codec ID                                 : XVID
    Codec ID/Hint                            : XviD
    Duration                                 : 1h 46mn
    Bit rate                                 : 1 871 Kbps
    Width                                    : 720 pixels
    Height                                   : 400 pixels
    Display aspect ratio                     : 16:9
    Frame rate                               : 24.000 fps
    Color space                              : YUV
    Chroma subsampling                       : 4:2:0
    Bit depth                                : 8 bits
    Scan type                                : Progressive
    Compression mode                         : Lossy
    Bits/(Pixel*Frame)                       : 0.271
    Stream size                              : 1.39 GiB (68%)
    Writing library                          : XviD 1.2.1 (UTC 2008-12-04)

    Audio #1
    ID                                       : 1
    Format                                   : AC-3
    Format/Info                              : Audio Coding 3
    Mode extension                           : CM (complete main)
    Codec ID                                 : 2000
    Duration                                 : 1h 46mn
    Bit rate mode                            : Constant
    Bit rate                                 : 384 Kbps
    Channel(s)                               : 6 channels
    Channel positions                        : Front: L C R, Side: L R, LFE
    Sampling rate                            : 48.0 KHz
    Bit depth                                : 16 bits
    Compression mode                         : Lossy
    Stream size                              : 293 MiB (14%)
    Alignment                                : Split accross interleaves

    Audio #2
    ID                                       : 2
    Format                                   : AC-3
    Format/Info                              : Audio Coding 3
    Mode extension                           : CM (complete main)
    Codec ID                                 : 2000
    Duration                                 : 1h 46mn
    Bit rate mode                            : Constant
    Bit rate                                 : 384 Kbps
    Channel(s)                               : 6 channels
    Channel positions                        : Front: L C R, Side: L R, LFE
    Sampling rate                            : 48.0 KHz
    Bit depth                                : 16 bits
    Compression mode                         : Lossy
    Stream size                              : 293 MiB (14%)
    Alignment                                : Split accross interleaves

    Скриншоты:


    © Оформление by Ворон
    pb.wtf



  • Скачать 10 мгновений судьбы через торрент https://pic.kartinco.top/images/6/ordi9.jpg Скачать фильм 10 мгновений судьбы через торрент бесплантно в хорошем качестве Год выпуска:2013✦ Страна: Австралия✦ Жанр:драма ✦ Продолжительность01:46:31✦ Перевод:Профессиональный ... 8.5 10 6
    Торрент: Зарегистрирован [2015-02-16 00:06] · скачан: 56 раз
    Статус: √ проверено
    Размер: 2.05 GB
    Как cкачать? Как скачать 10 мгновений судьбы через торрент | UTorrent

    % Раздел Тема Автор DL S | L
    Фильмы 2013 [DVDrip, WEB-DLRip, HDrip] [ 1.37 GB ] 10 мгновений судьбы / The Turning [2013 WEB-DLRip [Позитив] Ворон Скачать
    1 | 0

    28-11-2019 20:33  

    Отключить всю рекламу на сайте

      Дорогой пользователь! Огромная просьба, поблагодарите релизера, оцените раздачу и оставьте свои комментарий, если Вы скачали 10 мгновений судьбы через торрент бесплатно! Внесите свою лепту в развитие PiratBit!
      Комментировать посты могут только пользователи прошедшие не сложную регистрацию
      Показать сообщения:    

      10 мгновений судьбы через торрент
      Скачать бесплатно 10 мгновений судьбы
      10 мгновений судьбы скачать торрент
      10 мгновений судьбы смотреть онлайн
      Cкачать фильм 10 мгновений судьбы бесплатно
      10 мгновений судьбы скачать торрент в хорошем качестве
      10 мгновений судьбы смотреть онлайн бесплатно в хорошем качестве


      Вы не можете начинать темы
      Вы не можете отвечать на сообщения
      Вы не можете редактировать свои сообщения
      Вы не можете удалять свои сообщения
      Вы не можете голосовать в опросах
      Вы не можете прикреплять файлы к сообщениям
      Вы можете скачивать файлы