Death Stranding+DLC+АВТОАКТИВАЦИЯ

iTunes

iTunes

iTunes

1

iTunes

iTunes

iTunes

iTunes

iTunes

30
pack

$ от Little Big

ВАЖНО

!!Акция!!

Alien_RageХит недели

RePack

Resident Evil 21

ИГРА 18+

pack

RePack

jed

!!Акция!!

Alien_Rage

RePack

fifa19

RePack

Assassins Creed: Odyssey

RePack

NEED FOR SPEED™ PAYBACK

4 сезон

9 сезон

Бесстыжие 9 сезон

Все сериалы

все сериалы на PB.wtf

RePack

FAR CRY 5
  

Лесной змей / Wyrmwood (Кия Роуч-Тернер ) [2014, ужасы, боевик, WEB-DL 720p, DVO+VO] pb.wtf

Лесной змей через торрент pb.wtf

Размер: 3.4 GB | Добавлен: 5 лет 4 мес. назад | Торрент скачан:99 раз
Скачать  

16-02-2015 00:18 Лесной змей Скачать торрент  


Лесной змей / Wyrmwood


ИНФОРМАЦИЯ:
Год выпуска:2014
Страна:Австралия
Жанр:ужасы, боевик
Продолжительность01:38:34
Перевод: Любительский одноголосый [Хихикающий доктор], Любительский двухголосый [DeadSno & den904]
Субтитры: английские,
Режиссер:Кия Роуч-Тернер

В Ролях:


Джей Галлахер (Barry), Бьянка Брэди (Brooke), Леон Бурчилл (Benny), Люк МакКензи (The Captain), Юр Кович (Chalker), Кит Агиус (Frank), Катрин Террачини (Annie), Meganne West (Meganne), Кэйн Томпсон (McGaughlin), Бет Обри (Charlotte), Sheridan Harbridge (Sherri), Дэмиэн Дайк (Thompson)

ОПИСАНИЕ:
Барри был талантливым механиком и семейным человеком, пока его жизнь не была разрушена в канун зомби-апокалипсиса. В дороге он объединяется с ещё одним выжившим, Чалкером, и вместе они вооружают себя, чтобы противостоять на своём пути орде плотоядных монстров, рыщущих в суровых австралийских зарослях.

  • Мировая премьера:19 сентября 2014

    ТЕХ.ДАННЫЕ:
    Качество: WEB-DL 720p
    Формат: MKV | Видео кодек: AVC | Аудио кодек: AC3, MP3
    Видео: ✦1280x720 (16:9)✦ 3891 kbps✦ 24 fps✦ 0,176 bpp
    Аудио №1: ✦русский ✦ 2.0 ✦ 44 kHz ✦ 192 kbps ✦ || den904 & DeadSno
    Аудио №2: ✦русский ✦ 2.0 ✦ 48 kHz ✦ 384 kbps ✦ || Хихикающий доктор
    Аудио №3: ✦английский ✦ 5.1 ✦ 48 kHz ✦ 384 kbps ✦ 16 bit ✦
    Навигация по главам: есть


    Код:

    Общее
    Уникальный идентификатор                 : 241860489462331360601633393759271662689 (0xB5F4A2CA78A25995A8B6FB8FCE1A3461)
    Полное имя                               : D:\Торенты\Wyrmwood.2014.WEB-DL.720p.mkv
    Формат                                   : Matroska
    Версия формата                           : Version 4 / Version 2
    Размер файла                             : 3,40 Гбайт
    Продолжительность                        : 1 ч. 38 м.
    Общий поток                              : 4942 Кбит/сек
    Дата кодирования                         : UTC 2015-02-15 14:45:21
    Программа кодирования                    : mkvmerge v6.1.0 ('Old Devil') built on Mar  4 2013 09:10:42
    Библиотека кодирования                   : libebml v1.3.0 + libmatroska v1.4.0

    Видео
    Идентификатор                            : 1
    Формат                                   : AVC
    Формат/Информация                        : Advanced Video Codec
    Профиль формата                          : High@L3.1
    Параметр CABAC формата                   : Нет
    Параметр ReFrames формата                : 2 кадра
    Идентификатор кодека                     : V_MPEG4/ISO/AVC
    Продолжительность                        : 1 ч. 38 м.
    Битрейт                                  : 3884 Кбит/сек
    Ширина                                   : 1280 пикселей
    Высота                                   : 720 пикселей
    Соотношение сторон                       : 16:9
    Режим частоты кадров                     : Постоянный
    Частота кадров                           : 23,976 кадра/сек
    Цветовое пространство                    : YUV
    Субдискретизация насыщенности            : 4:2:0
    Битовая глубина                          : 8 бит
    Тип развёртки                            : Прогрессивная
    Бит/(Пиксели*Кадры)                      : 0.176
    Размер потока                            : 2,67 Гбайт (79%)
    Язык                                     : English
    Default                                  : Да
    Forced                                   : Нет
    Основные цвета                           : BT.709
    Характеристики трансфера                 : BT.709
    Коэффициенты матрицы                     : BT.709
    colour_range                             : Limited

    Аудио #1
    Идентификатор                            : 2
    Формат                                   : AC-3
    Формат/Информация                        : Audio Coding 3
    Расширение режима                        : CM (complete main)
    Параметр Endianness формата              : Big
    Идентификатор кодека                     : A_AC3
    Продолжительность                        : 1 ч. 38 м.
    Вид битрейта                             : Постоянный
    Битрейт                                  : 384 Кбит/сек
    Каналы                                   : 6 каналов
    Расположение каналов                     : Front: L C R, Side: L R, LFE
    Частота                                  : 48,0 КГц
    Битовая глубина                          : 16 бит
    Метод сжатия                             : С потерями
    Размер потока                            : 271 Мбайт (8%)
    Язык                                     : Russian
    Default                                  : Да
    Forced                                   : Нет

    Аудио #2
    Идентификатор                            : 3
    Формат                                   : MPEG Audio
    Версия формата                           : Version 1
    Профиль формата                          : Layer 3
    Идентификатор кодека                     : A_MPEG/L3
    Идентификатор кодека/Подсказка           : MP3
    Продолжительность                        : 1 ч. 38 м.
    Вид битрейта                             : Постоянный
    Битрейт                                  : 192 Кбит/сек
    Каналы                                   : 2 канала
    Частота                                  : 44,1 КГц
    Метод сжатия                             : С потерями
    Размер потока                            : 135 Мбайт (4%)
    Язык                                     : Russian
    Default                                  : Нет
    Forced                                   : Нет

    Аудио #3
    Идентификатор                            : 4
    Формат                                   : AC-3
    Формат/Информация                        : Audio Coding 3
    Расширение режима                        : CM (complete main)
    Параметр Endianness формата              : Big
    Идентификатор кодека                     : A_AC3
    Продолжительность                        : 1 ч. 38 м.
    Вид битрейта                             : Постоянный
    Битрейт                                  : 384 Кбит/сек
    Каналы                                   : 6 каналов
    Расположение каналов                     : Front: L C R, Side: L R, LFE
    Частота                                  : 48,0 КГц
    Битовая глубина                          : 16 бит
    Метод сжатия                             : С потерями
    Размер потока                            : 271 Мбайт (8%)
    Язык                                     : English
    Default                                  : Нет
    Forced                                   : Нет

    Текст
    Идентификатор                            : 5
    Формат                                   : UTF-8
    Идентификатор кодека                     : S_TEXT/UTF8
    Идентификатор кодека/Информация          : UTF-8 Plain Text
    Язык                                     : English
    Default                                  : Нет
    Forced                                   : Нет

    Меню
    00:00:00.000                             : en:1
    00:14:59.000                             : en:2
    00:26:34.000                             : en:3
    00:39:25.000                             : en:4
    00:53:51.000                             : en:5
    01:07:38.000                             : en:6
    01:22:07.000                             : en:7
    01:34:51.000                             : en:8

    Скриншоты:


    © Оформление by Ворон
    pb.wtf



  • Скачать Лесной змей через торрент http://pic.kartinco.top/images/6/ordi9.jpg Скачать фильм Лесной змей через торрент бесплантно в хорошем качестве Е:Барри был талантливым механиком и семейным человеком, пока его жизнь не была разрушена в канун зомби-апокалипсиса. В дороге он ... 10 10 9
    Торрент: Зарегистрирован [2015-02-16 00:18] · скачан: 99 раз
    Статус: T временная
    Размер: 3.4 GB
    Как cкачать? Как скачать Лесной змей через торрент | qTorrent

    % Раздел Тема Автор DL S | L
    Фильмы с авторской озвучкой [ 2.03 GB ] Лесной змей / Wyrmwood [2014 HDRip Авторский одноголосый "Д. Есарев"] coc900 Скачать
    1 | 0
    T Фильмы 2014 (Звук TS, Cam, VO, DVO) [ 2.27 GB ] Лесной змей / Wyrmwood [2014 WEB-DLRip-AVC Любительский двухголосый [DeadSno & den904] Ворон Скачать
    1 | 0
    Фильмы 2014 (Звук TS, Cam, VO, DVO) [ 1.37 GB ] Лесной змей / Wyrmwood [2014 WEB-DLRip Любительский двухголосый [DeadSno & den904] Ворон Скачать
    1 | 0
    Фильмы 2014 (Звук TS, Cam, VO, DVO) [ 1.37 GB ] Лесной змей / Wyrmwood [2014 WEB-DLRip Любительский [Xixidok] Ворон Скачать
    1 | 0
    Фильмы (WEB-DL 720p, 1080p) [ 3.14 GB ] Лесной змей / Wyrmwood [2014 WEB-DL 720p Любительский [Xixidok] Ворон Скачать
    1 | 0

    28-11-2019 20:33  

    Отключить всю рекламу на сайте

    26-07-2019 15:39 Лесной змей Скачать торрент  

    Охуенный фильмpb.wtf



    01-08-2019 11:54 Лесной змей Скачать торрент  

    третий скрин тоже зомбиpb.wtf



      Дорогой пользователь! Огромная просьба, поблагодарите релизера, оцените раздачу и оставьте свои комментарий, если Вы скачали Лесной змей через торрент бесплатно! Внесите свою лепту в развитие PiratBit!
      Комментировать посты могут только пользователи прошедшие не сложную регистрацию
      Показать сообщения:    

      Лесной змей через торрент
      Скачать бесплатно Лесной змей
      Лесной змей скачать торрент
      Лесной змей смотреть онлайн
      Cкачать фильм Лесной змей бесплатно
      Лесной змей скачать торрент в хорошем качестве
      Лесной змей смотреть онлайн бесплатно в хорошем качестве


      Вы не можете начинать темы
      Вы не можете отвечать на сообщения
      Вы не можете редактировать свои сообщения
      Вы не можете удалять свои сообщения
      Вы не можете голосовать в опросах
      Вы не можете прикреплять файлы к сообщениям
      Вы можете скачивать файлы