1 сезон

3 сезон

iTunes

1

Line

MVO

iTunes

13

1 сезон

RePack

30

Deluxe

pack

Лицензия

ВАЖНО

ИГРА 18+

pack

RePack

MK11

RePack

jed

RePack

fifa19

RePack

RDR2

RePack

NEED FOR SPEED™ PAYBACK

4 сезон

9 сезон

Бесстыжие 9 сезон

Все сериалы

все сериалы на PB.wtf

RePack

FAR CRY 5

Anonymous, доброй ночи, мы катастрофически не успеваем собрать деньги на оплату серверов, помогите нам пожалуйста 5,10,15р., для нас важна любая помощь . В качестве благодарности мы отключим Вам всю рекламу на сайте (укажите свой ник в строку Ваше имя)!

×
  
Magnet ссылка

Максимальный Срок / Maximum Conviction (Киони Ваксман) [2012 г., боевик, триллер, приключения, DVD9 от New-Team / лицензия] pb.wtf

Максимальный Срок через торрент pb.wtf

Размер: 6.16 GB | Добавлен: 6 лет 5 мес. назад | Торрент скачан:12 раз
Скачать  

16-02-2015 08:14 Максимальный Срок Скачать торрент  

Максимальный Срок / Maximum Conviction

Страна: США

Жанр: боевик, триллер, приключения

Год выпуска: 2012

Продолжительность: 01:33:34

Перевод: Профессиональный (многоголосый закадровый)

Оригинальная аудиодорожка: английский

Cубтитры: русский

Режиссер: Киони Ваксман / Keoni Waxman

В ролях: Стивен Сигал, Стив Остин, Майкл Паре, Алийа О’Брайен, Стеф Сонг, Брен Фостер, Шарлин Ройер, Кирби Морроу, Зак Сантьяго, Лауро Чартрэнд...

Описание: Бывшие сотрудники секретного оперативного подразделения Том Стил и его напарник Мэннинг получают задание — осуществить процедуру закрытия старой тюрьмы, для чего им поручают проконтролировать прибытие двух женщин-заключенных.

С первого взгляда, необременительное дело вскоре превращается в поле боевых действий — профессиональная группа наёмников проникает в тюрьму с целью — любой ценой отыскать вновь прибывших узниц. Выяснив, кем являются эти женщины на самом деле, оперативник Стил понимает, что он оказался втянут в нечто более опасное, чем он мог себе представить…





Качество: DVD9 R5
Формат: DVD-Video
Видео кодек: MPEG2
Аудио кодек: AC3
Видео: PAL 16x9 (720х576) VBR ~ 7850 kbps, Auto Letterboxed

Аудио 1: 48 kHz, Dolby AC3 5.1 384 kbps, русский

Аудио 2: 48 kHz, Dolby AC3 2.0 192 kbps, русский

Аудио 3: 48 kHz, Dolby AC3 5.1 384 kbps, английский

Меню: анимированное

Доп. материалы: Новинки

Раздача от:
MediaInfo:
Общее
Полное имя : F:Максимальный срок Maximum Conviction DVD9\VIDEO_TS\VTS_01_3.VOB
Формат : MPEG-PS
Размер файла : 1024 Мбайт
Продолжительность : 17 м.
Общий поток : 8415 Кбит/сек

Видео
Идентификатор : 224 (0xE0)
Формат : MPEG Video
Версия формата : Version 2
Профиль формата : Main@Main
Параметр BVOP формата : Да
Параметр матрицы формата : По умолчанию
Параметры GOP формата : M=3, N=15
Продолжительность : 17 м.
Вид битрейта : Переменный
Битрейт : 7287 Кбит/сек
Номинальный битрейт : 8500 Кбит/сек
Ширина : 720 пикс.
Высота : 576 пикс.
Соотношение сторон : 16:9
Частота кадров : 25,000 кадр/сек
Стандарт вещания : PAL
Цветовое пространство : YUV
Подвыборка цветности : 4:2:0
Битовая глубина : 8 бит
Тип развёртки : Чересстрочная
Порядок развёртки : Верхнее поле первое
Метод сжатия : С потерями
Бит/(Пиксели*Кадры) : 0.703
Размер потока : 886 Мбайт (87%)

Аудио #1
Идентификатор : 189 (0xBD)-128 (0x80)
Формат : AC-3
Формат/Информация : Audio Coding 3
Расширение режима : CM (complete main)
Режим смешивания : DVD-Video
Продолжительность : 17 м.
Вид битрейта : Постоянный
Битрейт : 384 Кбит/сек
Каналы : 6 каналов
Расположение каналов : Front: L C R, Side: L R, LFE
Частота : 48,0 КГц
Битовая глубина : 16 бит
Метод сжатия : С потерями
Задержка видео : -664 мс.
Размер потока : 46,7 Мбайт (5%)

Аудио #2
Идентификатор : 189 (0xBD)-129 (0x81)
Формат : AC-3
Формат/Информация : Audio Coding 3
Расширение режима : CM (complete main)
Режим смешивания : DVD-Video
Продолжительность : 17 м.
Вид битрейта : Постоянный
Битрейт : 192 Кбит/сек
Каналы : 2 канала
Расположение каналов : Front: L R
Частота : 48,0 КГц
Битовая глубина : 16 бит
Метод сжатия : С потерями
Задержка видео : -568 мс.
Размер потока : 23,4 Мбайт (2%)

Аудио #3
Идентификатор : 189 (0xBD)-130 (0x82)
Формат : AC-3
Формат/Информация : Audio Coding 3
Расширение режима : CM (complete main)
Режим смешивания : DVD-Video
Продолжительность : 17 м.
Вид битрейта : Постоянный
Битрейт : 384 Кбит/сек
Каналы : 6 каналов
Расположение каналов : Front: L C R, Side: L R, LFE
Частота : 48,0 КГц
Битовая глубина : 16 бит
Метод сжатия : С потерями
Задержка видео : -664 мс.
Размер потока : 46,7 Мбайт (5%)
Title: Maksimalnyi.srok.2012.P.DVD9

Size: 6.16 Gb ( 6 456 588,00 KBytes ) - DVD-9

Enabled regions: 1, 2, 3, 4, 5, 6, 7, 8

VTS_01 :

Play Length: 00:00:01+01:33:34+00:00:01

Video: PAL 16:9 (720x576) VBR, Auto Letterboxed

Audio:

Russian, AC3, 3/2 (L,C,R,SL,SR)+LFE ch, 384 kbps, Delay 0 mSec

Russian, AC3, 2/0 (L,R) ch, 192 kbps, Delay 0 mSec

English, AC3, 3/2 (L,C,R,SL,SR)+LFE ch, 384 kbps, Delay 0 mSec

Subtitles:

Russian

VTS_02 :

Play Length: 00:00:01+00:00:05+00:00:13

Video: PAL 16:9 (720x576) VBR, Auto Letterboxed

Audio:

Russian (Dolby AC3, 6 ch)

VTS_03 :

Play Length: 00:00:01+00:02:36+00:00:01

Video: PAL 16:9 (720x576) VBR, Auto Letterboxed

Audio:

Russian (Dolby AC3, 2 ch)

VTS_04 :

Play Length: 00:00:01+00:00:08+00:00:01

Video: PAL 16:9 (720x576) VBR, Auto Letterboxed

Audio:

Russian (Dolby AC3, 2 ch)

VTS_05 :

Play Length: 00:00:01+00:02:26+00:00:01+00:00:01+00:02:06+00:00:01+00:00:01+00:01:25+00:00:01

Video: PAL 16:9 (720x576) VBR, Auto Letterboxed

Audio:

Russian (Dolby AC3, 2 ch)
pb.wtf



Скачать Максимальный Срок через торрент http://i47.fastpic.ru/big/2012/1121/43/c98ec8b82e79d735ea1fd3d0dab5a343.png Скачать фильм Максимальный Срок через торрент бесплантно в хорошем качестве Описание: Бывшие сотрудники секретного оперативного подразделения Том Стил и его напарник Мэннинг получают задание — осуществить процедуру ... 10 10 1
Торрент: Зарегистрирован [2015-02-16 08:14] · скачан: 12 раз
Статус: √ проверено
Размер: 6.16 GB
Как cкачать? Как скачать Максимальный Срок через торрент | UTorrent

% Раздел Тема Автор DL S | L
Фильмы [HD 720p, 1080p] (Хороший звук DUB, MVO) [ 8.17 GB ] Максимальный срок / Maximum Conviction [2012 BDRip 1080p MVO] VintMosina Скачать
1 | 0
Фильмы 2012 [ 1.46 GB ] Максимальный Срок / Maximum Conviction [2012 HDRip MVO лицензия] oleg8 Скачать
1 | 0
Фильмы 2012 [ 1.41 GB ] Максимальный срок / Maximum Conviction [2012 HDRip-AVC] MVO sokol_ok Скачать
2 | 0

28-11-2019 20:33  

Отключить всю рекламу на сайте

    Дорогой пользователь! Огромная просьба, поблагодарите релизера, оцените раздачу и оставьте свои комментарий, если Вы скачали Максимальный Срок через торрент бесплатно! Внесите свою лепту в развитие PiratBit!
    Комментировать посты могут только пользователи прошедшие не сложную регистрацию
    Показать сообщения:    

    Максимальный Срок через торрент
    Скачать бесплатно Максимальный Срок
    Максимальный Срок скачать торрент
    Максимальный Срок смотреть онлайн
    Cкачать фильм Максимальный Срок бесплатно
    Максимальный Срок скачать торрент в хорошем качестве
    Максимальный Срок смотреть онлайн бесплатно в хорошем качестве


    Вы не можете начинать темы
    Вы не можете отвечать на сообщения
    Вы не можете редактировать свои сообщения
    Вы не можете удалять свои сообщения
    Вы не можете голосовать в опросах
    Вы не можете прикреплять файлы к сообщениям
    Вы можете скачивать файлы