2 сезон

iTunes

1 сезон

1

iTunes

iTunes

iTunes

1 сезон

RePack

30

ИГРА 18+

pack

ВАЖНО

!!Акция!!

Alien_RageХит недели

RePack

MK11
pack

Забери бонус

RePack

jed

!!Акция!!

Alien_Rage

RePack

fifa19

RePack

Assassins Creed: Odyssey

RePack

NEED FOR SPEED™ PAYBACK

4 сезон

9 сезон

Бесстыжие 9 сезон

Все сериалы

все сериалы на PB.wtf

RePack

FAR CRY 5
  

Мальчики миссис Браун / Mrs. Brown's Boys D'Movie (Бен Келлетт ) [2014, комедия, HDRip, Любительский (одноголосый) pb.wtf

Мальчики миссис Браун через торрент pb.wtf

Размер: 2.06 GB | Добавлен: 5 лет 8 мес. назад | Торрент скачан:45 раз
Скачать  

17-02-2015 06:07 Мальчики миссис Браун Скачать торрент  


Мальчики миссис Браун / Mrs. Brown's Boys D'Movie


ИНФОРМАЦИЯ:
Год выпуска:2014
Страна:Великобритания, Ирландия
Жанр:комедия
Продолжительность01:34:19
Перевод:Любительский (одноголосый) Виктор Береговых (перевод М.Васильева)
Режиссер:Бен Келлетт

В Ролях:

Брендан О’Кэрролл (Agnes Brown), Дженнифер Гибни (Cathy Brown), Эйлиш О’Кэрролл (Winnie McGoogan), Дэнни О’Кэрролл (Buster Brady), Фиона О’Кэрролл (Maria Brown), Пэдди Хулихан (Dermot Brown), Гари Халливуд (Dino Doyle), Джимми Гибни (Father McBride), Джэми О’Кэрролл (Bono Brown), Дермот О’Нилл (Grandad Brown), Пэт Шилдс (Mark Brown), Аманда Вудс (Betty Brown)

ОПИСАНИЕ:
На этот раз Браунам приходится выяснять отношения с налоговой инспекцией, коррумпированными чиновниками и русской мафией.

  • Мировая премьера:27 июня 2014

    ТЕХ.ДАННЫЕ:
    Качество: HDRip
    Формат: AVI ✦ Видео кодек: XviD ✦ Аудио кодек: AC3
    Видео: 720x384 (1.875)| 23,976 fps
    Аудио №1: 5.1 | 48 kHz | 384 kbps | RUS
    Аудио №2: 5.1 | 48 kHz | 448 kbps |ENG


    Код:

    General
    Complete name                            : D:\Торенты\Mrs. Brown's Boys D'Movie (2014) HDRip.avi
    Format                                   : AVI
    Format/Info                              : Audio Video Interleave
    Format profile                           : OpenDML
    Format settings                          : rec
    File size                                : 2.06 GiB
    Duration                                 : 1h 34mn
    Overall bit rate                         : 3 129 Kbps
    Writing application                      : AVI-Mux GUI 1.17.8.3, Feb 16 201019:42:50

    Video
    ID                                       : 0
    Format                                   : MPEG-4 Visual
    Codec ID                                 : XVID
    Codec ID/Hint                            : XviD
    Duration                                 : 1h 34mn
    Source duration                          : 4s 129ms
    Bit rate                                 : 982 bps
    Width                                    : 720 pixels
    Height                                   : 384 pixels
    Display aspect ratio                     : 1.875
    Frame rate                               : 23.976 fps
    Color space                              : YUV
    Chroma subsampling                       : 4:2:0
    Compression mode                         : Lossy
    Bits/(Pixel*Frame)                       : 0.000
    Stream size                              : 678 KiB (0%)

    Audio #1
    ID                                       : 1
    Format                                   : AC-3
    Format/Info                              : Audio Coding 3
    Codec ID                                 : 2000
    Duration                                 : 1h 34mn
    Source duration                          : 4s 352ms
    Bit rate mode                            : Constant
    Bit rate                                 : 384 Kbps
    Channel(s)                               : 6 channels
    Sampling rate                            : 48.0 KHz
    Compression mode                         : Lossy
    Stream size                              : 204 KiB (0%)
    Alignment                                : Aligned on interleaves
    Interleave, duration                     : 61 ms (1.46 video frame)
    Interleave, preload duration             : 192 ms
    Title                                    : rus_259

    Audio #2
    ID                                       : 2
    Format                                   : AC-3
    Format/Info                              : Audio Coding 3
    Codec ID                                 : 2000
    Duration                                 : 1h 34mn
    Source duration                          : 4s 352ms
    Bit rate mode                            : Constant
    Bit rate                                 : 448 Kbps
    Channel(s)                               : 6 channels
    Sampling rate                            : 48.0 KHz
    Compression mode                         : Lossy
    Stream size                              : 238 KiB (0%)
    Alignment                                : Aligned on interleaves
    Interleave, duration                     : 61 ms (1.46 video frame)
    Interleave, preload duration             : 192 ms
    Title                                    : eng_302

    Скриншоты:


    © Оформление by Ворон
    pb.wtf



  • Скачать Мальчики миссис Браун через торрент http://pic.kartinco.top/images/6/ordi9.jpg Скачать фильм Мальчики миссис Браун через торрент бесплантно в хорошем качестве Е:На этот раз Браунам приходится выяснять отношения с налоговой инспекцией, коррумпированными чиновниками и русской мафией. Мировая ... 10 10 1
    Торрент: Зарегистрирован [2015-02-17 06:07] · скачан: 45 раз
    Статус: T временная
    Размер: 2.06 GB
    Как cкачать? Как скачать Мальчики миссис Браун через торрент | qTorrent

    28-11-2019 20:33  

    Отключить всю рекламу на сайте

      Дорогой пользователь! Огромная просьба, поблагодарите релизера, оцените раздачу и оставьте свои комментарий, если Вы скачали Мальчики миссис Браун через торрент бесплатно! Внесите свою лепту в развитие PiratBit!
      Комментировать посты могут только пользователи прошедшие не сложную регистрацию
      Показать сообщения:    

      Мальчики миссис Браун через торрент
      Скачать бесплатно Мальчики миссис Браун
      Мальчики миссис Браун скачать торрент
      Мальчики миссис Браун смотреть онлайн
      Cкачать фильм Мальчики миссис Браун бесплатно
      Мальчики миссис Браун скачать торрент в хорошем качестве
      Мальчики миссис Браун смотреть онлайн бесплатно в хорошем качестве


      Вы не можете начинать темы
      Вы не можете отвечать на сообщения
      Вы не можете редактировать свои сообщения
      Вы не можете удалять свои сообщения
      Вы не можете голосовать в опросах
      Вы не можете прикреплять файлы к сообщениям
      Вы можете скачивать файлы