2 сезон

iTunes

1 сезон

1

iTunes

iTunes

iTunes

1 сезон

RePack

30

ИГРА 18+

pack

ВАЖНО

!!Акция!!

Alien_RageХит недели

RePack

MK11
pack

Забери бонус

RePack

jed

!!Акция!!

Alien_Rage

RePack

fifa19

RePack

Assassins Creed: Odyssey

RePack

NEED FOR SPEED™ PAYBACK

4 сезон

9 сезон

Бесстыжие 9 сезон

Все сериалы

все сериалы на PB.wtf

RePack

FAR CRY 5
  

Пингвины Мадагаскара / Penguins of Madagascar (Эрик Дарнелл , Саймон Дж. Смит ) [2014, США, мультфильм, BDRip-AVC от ExKinoRay / iTunes Russia] pb.wtf

Пингвины Мадагаскара через торрент pb.wtf

Размер: 1.71 GB | Добавлен: 5 лет 8 мес. назад | Торрент скачан:336 раз
Скачать  

17-02-2015 07:42 Пингвины Мадагаскара Скачать торрент  

Информация о фильме

Название: Пингвины Мадагаскара

Оригинальное название: Penguins of Madagascar

Год выпуска: 2014

Продолжительность: 01:32:20

Перевод: Дублированный

Субтитры: Русские, украинские

Озвучивание: Дублированное (iTunes Russia)

Жанр: Мультфильм, комедия, приключения, семейный, полнометражный

Выпущено: США, DreamWorks Animation, Pacific Data Images (PDI)

Режиссер: Эрик Дарнелл, Саймон Дж. Смит

В ролях: Том МакГрат, Крис Миллер, Кристофер Найтс, Бенедикт Камбербэтч, Петер Стормаре, Джон Малкович, Кен Жонг, Аннет Махендру

Описание: Сверхсекретные операции, железная дисциплина и выдержка, а главное, феноменальная находчивость — вот критерии успешной миссии, даже если она кажется невыполнимой.



Файл

Качество: BDRip (AVC)
Формат:MKV
Видео кодек: AVC
Аудио кодек:AC3
Видео: MPEG-4 AVC, 1888 Кбит/с, 1024x552, 23.976 кадр/с
Аудио: Русский (AC3, 6 ch, 384 Кбит/с)/ 48 kHz
Аудио2: английский (AC3, 6 ch, 384 Кбит/с)/ 48 kHz

Сохранены оригинальные чаптеры.
x264 [info]: frame I:1335 Avg QP:15.39 size: 67612

x264 [info]: frame P:38548 Avg QP:19.22 size: 18602

x264 [info]: frame B:92935 Avg QP:21.12 size: 5383

x264 [info]: consecutive B-frames: 5.4% 6.1% 10.8% 58.8% 6.7% 10.5% 0.6% 0.3% 0.3% 0.5%

x264 [info]: mb I I16..4: 6.8% 66.3% 26.9%

x264 [info]: mb P I16..4: 2.0% 11.9% 2.2% P16..4: 30.6% 31.6% 8.1% 2.2% 0.2% skip:11.3%

x264 [info]: mb B I16..4: 0.3% 1.4% 0.2% B16..8: 29.5% 16.2% 2.7% direct: 3.5% skip:46.3% L0:39.1% L1:48.8% BI:12.1%

x264 [info]: 8x8 transform intra:72.9% inter:55.2%

x264 [info]: direct mvs spatial:93.8% temporal:6.2%

x264 [info]: coded y,uvDC,uvAC intra: 76.8% 87.3% 65.5% inter: 13.3% 19.4% 10.5%

x264 [info]: i16 v,h,dc,p: 13% 19% 4% 64%

x264 [info]: i8 v,h,dc,ddl,ddr,vr,hd,vl,hu: 11% 12% 7% 8% 11% 11% 13% 11% 16%

x264 [info]: i4 v,h,dc,ddl,ddr,vr,hd,vl,hu: 15% 15% 6% 7% 12% 11% 12% 9% 12%

x264 [info]: i8c dc,h,v,p: 33% 28% 18% 21%

x264 [info]: Weighted P-Frames: Y:7.2% UV:5.5%

x264 [info]: ref P L0: 56.1% 7.0% 17.2% 6.1% 4.2% 3.1% 2.8% 1.6% 1.5% 0.4% 0.0%

x264 [info]: ref B L0: 79.3% 9.8% 4.5% 2.6% 1.5% 1.1% 0.8% 0.3%

x264 [info]: ref B L1: 94.3% 5.7%

x264 [info]: kb/s:1888.33
Общее

Уникальный идентификатор : 179722361923415478112602851336266676843 (0x87354491D887C0939C5332B0480B7A6B)

Полное имя : D:ЗагрузкиPenguins.Of.Madagascar.2014.x264.BDRip.(AVC).ExKinoRay.mkv

Формат : Matroska

Версия формата : Version 2

Размер файла : 1,71 Гбайт

Продолжительность : 1 ч. 32 м.

Общий поток : 2655 Кбит/сек

Название фильма : Пингвины Мадагаскара.2014.Rip by: ollan

Дата кодирования : UTC 2015-02-17 07:02:10

Программа кодирования : mkvmerge v5.6.0 ('Kenya Kane') built on May 27 2012 16:44:04

Библиотека кодирования : libebml v1.2.3 + libmatroska v1.3.0

Видео

Идентификатор : 1

Формат : AVC

Формат/Информация : Advanced Video Codec

Профиль формата : High@L4.1

Параметр CABAC формата : Да

Параметр ReFrames формата : 9 кадров

Идентификатор кодека : V_MPEG4/ISO/AVC

Продолжительность : 1 ч. 32 м.

Битрейт : 1888 Кбит/сек

Ширина : 1024 пикселя

Высота : 552 пикселя

Соотношение сторон : 1,85:1

Режим частоты кадров : Постоянный

Частота кадров : 23,976 кадра/сек

Цветовое пространство : YUV

Субдискретизация насыщенности : 4:2:0

Битовая глубина : 8 бит

Тип развёртки : Прогрессивная

Бит/(Пиксели*Кадры) : 0.139

Размер потока : 1,18 Гбайт (69%)

Библиотека кодирования : x264 core 125 r2200 999b753

Настройки программы : cabac=1 / ref=9 / deblock=1:-3:-3 / analyse=0x3:0x133 / me=umh / subme=11 / psy=1 / psy_rd=1.00:0.10 / mixed_ref=1 / me_range=32 / chroma_me=1 / trellis=2 / 8x8dct=1 / cqm=0 / deadzone=21,11 / fast_pskip=0 / chroma_qp_offset=-3 / threads=12 / lookahead_threads=2 / sliced_threads=0 / nr=0 / decimate=0 / interlaced=0 / bluray_compat=0 / constrained_intra=0 / bframes=9 / b_pyramid=2 / b_adapt=2 / b_bias=0 / direct=3 / weightb=1 / open_gop=0 / weightp=2 / keyint=240 / keyint_min=23 / scenecut=40 / intra_refresh=0 / rc=2pass / mbtree=0 / bitrate=1888 / ratetol=1.0 / qcomp=0.60 / qpmin=0 / qpmax=69 / qpstep=4 / cplxblur=20.0 / qblur=0.5 / ip_ratio=1.40 / pb_ratio=1.30 / aq=1:1.00

Язык : English

Default : Да

Forced : Нет

Аудио #1

Идентификатор : 2

Формат : AC-3

Формат/Информация : Audio Coding 3

Расширение режима : CM (complete main)

Параметр Endianness формата : Big

Идентификатор кодека : A_AC3

Продолжительность : 1 ч. 32 м.

Вид битрейта : Постоянный

Битрейт : 384 Кбит/сек

Каналы : 6 каналов

Расположение каналов : Front: L C R, Side: L R, LFE

Частота : 48,0 КГц

Битовая глубина : 16 бит

Метод сжатия : С потерями

Размер потока : 254 Мбайт (14%)

Заголовок : Дублированный (iTunes Russia)

Язык : Russian

Default : Да

Forced : Нет

Аудио #2

Идентификатор : 3

Формат : AC-3

Формат/Информация : Audio Coding 3

Расширение режима : CM (complete main)

Параметр Endianness формата : Big

Идентификатор кодека : A_AC3

Продолжительность : 1 ч. 32 м.

Вид битрейта : Постоянный

Битрейт : 384 Кбит/сек

Каналы : 6 каналов

Расположение каналов : Front: L C R, Side: L R, LFE

Частота : 48,0 КГц

Битовая глубина : 16 бит

Метод сжатия : С потерями

Размер потока : 254 Мбайт (14%)

Язык : English

Default : Нет

Forced : Нет

Текст #1

Идентификатор : 4

Формат : UTF-8

Идентификатор кодека : S_TEXT/UTF8

Идентификатор кодека/Информация : UTF-8 Plain Text

Заголовок : Forced

Язык : Russian

Default : Да

Forced : Нет

Текст #2

Идентификатор : 5

Формат : UTF-8

Идентификатор кодека : S_TEXT/UTF8

Идентификатор кодека/Информация : UTF-8 Plain Text

Заголовок : Full

Язык : Russian

Default : Нет

Forced : Нет

Текст #3

Идентификатор : 6

Формат : UTF-8

Идентификатор кодека : S_TEXT/UTF8

Идентификатор кодека/Информация : UTF-8 Plain Text

Заголовок : Forced

Язык : Ukrainian

Default : Нет

Forced : Нет

Текст #4

Идентификатор : 7

Формат : UTF-8

Идентификатор кодека : S_TEXT/UTF8

Идентификатор кодека/Информация : UTF-8 Plain Text

Заголовок : Full

Язык : Ukrainian

Default : Нет

Forced : Нет

Меню

00:00:00.000 : en:Chapter 01

00:03:38.000 : en:Chapter 02

00:07:27.000 : en:Chapter 03

00:09:23.000 : en:Chapter 04

00:12:09.000 : en:Chapter 05

00:16:08.000 : en:Chapter 06

00:19:21.000 : en:Chapter 07

00:23:02.000 : en:Chapter 08

00:26:57.000 : en:Chapter 09

00:28:59.000 : en:Chapter 10

00:30:34.000 : en:Chapter 11

00:33:59.000 : en:Chapter 12

00:38:03.000 : en:Chapter 13

00:41:28.000 : en:Chapter 14

00:44:22.000 : en:Chapter 15

00:46:37.000 : en:Chapter 16

00:49:10.000 : en:Chapter 17

00:54:28.000 : en:Chapter 18

00:55:57.000 : en:Chapter 19

01:00:00.000 : en:Chapter 20

01:03:03.000 : en:Chapter 21

01:06:37.000 : en:Chapter 22

01:09:48.000 : en:Chapter 23

01:12:06.000 : en:Chapter 24

01:14:15.000 : en:Chapter 25

01:15:54.000 : en:Chapter 26

01:18:23.000 : en:Chapter 27

01:20:44.000 : en:Chapter 28
Релиз от: Rip by: pb.wtf



Скачать Пингвины Мадагаскара через торрент http://s013.radikal.ru/i325/1501/54/ab5a94864e17.jpg Скачать фильм Пингвины Мадагаскара через торрент бесплантно в хорошем качестве Описание: Сверхсекретные операции, железная дисциплина и выдержка, а главное, феноменальная находчивость — вот критерии успешной миссии, ... 9.3 10 7
Торрент: Зарегистрирован [2015-02-17 07:42] · скачан: 336 раз
Статус: √ проверено
Размер: 1.71 GB
Как cкачать? Как скачать Пингвины Мадагаскара через торрент | qTorrent

% Раздел Тема Автор DL S | L
Зарубежные Мультфильмы (BDRip 1080p, 720p, Blu-ray, BD-Remux) [ 4.36 GB ] Пингвины Мадагаскара / Penguins of Madagascar [2014 Мультфильм BDRip 1080p HEVC ] Мичман37 Скачать
2 | 0
Мультфильмы (48-60 fps) [ 3.69 GB ] Пингвины Мадагаскара / Penguins of Madagascar [2014 мультфильм BDRip-AVC 60fps ] от R.G. HD-Films Tiberiumsun69 Скачать
1 | 0
Мультфильмы (48-60 fps) [ 4.74 GB ] Пингвины Мадагаскара / Penguins of Madagascar [2014 мультфильм BDRip 720p / 60 fps] DUB от NNNB еnvy Скачать
1 | 0
Иностранные мультфильмы [ 1.46 GB ] Пингвины Мадагаскара / Penguins of Madagascar [2014 мультфильм HDRip ""] coc900 Скачать
2 | 0
Зарубежные Мультфильмы (BDRip 1080p, 720p, Blu-ray, BD-Remux) [ 9.99 GB ] Пингвины Мадагаскара / Penguins of Madagascar [2014 мультфильм BDRip 1080p] 2xDub + Original + Sub Seedtank Скачать
1 | 0
Зарубежные Мультфильмы (BDRip 1080p, 720p, Blu-ray, BD-Remux) [ 15.98 GB ] Пингвины Мадагаскара / Penguins of Madagascar [2014 Мультфильм полнометражный BD-Remux ] Бумер Скачать
1 | 0
Зарубежные Мультфильмы (BDRip 1080p, 720p, Blu-ray, BD-Remux) [ 7.43 GB ] Пингвины Мадагаскара / Penguins of Madagascar [2014 мультфильм BDRip 1080p ] Ворон Скачать
1 | 0

28-11-2019 20:33  

Отключить всю рекламу на сайте

    Дорогой пользователь! Огромная просьба, поблагодарите релизера, оцените раздачу и оставьте свои комментарий, если Вы скачали Пингвины Мадагаскара через торрент бесплатно! Внесите свою лепту в развитие PiratBit!
    Комментировать посты могут только пользователи прошедшие не сложную регистрацию
    Показать сообщения:    

    Пингвины Мадагаскара через торрент
    Скачать бесплатно Пингвины Мадагаскара
    Пингвины Мадагаскара скачать торрент
    Пингвины Мадагаскара смотреть онлайн
    Cкачать фильм Пингвины Мадагаскара бесплатно
    Пингвины Мадагаскара скачать торрент в хорошем качестве
    Пингвины Мадагаскара смотреть онлайн бесплатно в хорошем качестве


    Вы не можете начинать темы
    Вы не можете отвечать на сообщения
    Вы не можете редактировать свои сообщения
    Вы не можете удалять свои сообщения
    Вы не можете голосовать в опросах
    Вы не можете прикреплять файлы к сообщениям
    Вы можете скачивать файлы