Ссылка на приватное зеркало нашего сайта всего за 1$. Внимание количество ограничено!!!

2 сезон

iTunes

1 сезон

1

2 сезон

2 сезон

iTunes

1 сезон

RePack

30

Ultimate

ВАЖНО

ИГРА 18+

pack

RePack

MK11
pack

Забери бонус

RePack

jed

!!Акция!!

Alien_Rage

RePack

fifa19

RePack

Assassins Creed: Odyssey

RePack

NEED FOR SPEED™ PAYBACK

4 сезон

9 сезон

Бесстыжие 9 сезон

Все сериалы

все сериалы на PB.wtf

RePack

FAR CRY 5
  

Детектив Дрезден: Секретные материалы / Досье Дрездена / The Dresden Files / Сезон: 1 / Серии: 1 - 12 (12) (Дэвид Карсон / David Carson, Майкл Гроссман / Michael Grossman) [2007, фэнтези, боевик, драма, кримин, HDTVRip] MVO (ТВ3) pb.wtf

Детектив Дрезден: Секретные материалы через торрент pb.wtf

Размер: 6.45 GB | Добавлен: 5 лет 9 мес. назад | Торрент скачан:106 раз
Скачать  

17-02-2015 08:06 Детектив Дрезден: Секретные материалы Скачать торрент  

Детектив Дрезден - Секретные материалы / The Dresden Files
Год выпуска: 2007
Страна: США
Жанр: фэнтези, боевик, драма, комедия, криминал
Продолжительность: ~ 00:43:00
Перевод: Профессиональный многоголосый(ТВ3)
Субтитры: отсутствуют

Режиссер: Дэвид Карсон / David Carson, Майкл Гроссман / Michael Grossman



В ролях: Пол Блекторн, Валери Крус, Терренс Манн, Рауль Банеджа, Конрад Коутс, Мэтт Гордон, Джонатан Хиггинс, Дэниэл Кэш, Джоэнн Келли, Мэттью Найт...

Описание: Гарри Дрезден — единственный чародей, который дает объявления в Чикагскую телефонную книгу. Он грешит, но и против него «грешат». Но во тьме его прошлого, он находит внутренние силы и неистовое желание поступать правильно. Вооруженный верным посохом (согласен, это просто клюшка) и обаянием (если вы ничего не имеете против элегантного чувства юмора), и при содействии своего надоедливого духа-справочника Боба (обречённая душа, магический эксперт, вуаер (любитель подглядывать за обнаженными людьми)), Дрезден защитит неудачника от всевозможных сверхъестественных опасностей — всего за пять сотен долларов в день. Плюс дополнительные расходы. Но если фокус становится покусом, если начинаются… странности, если вещи, рухнувшие в ночи, начинают обладать мощной силой. ….. « один звонок и его клюшка, к вашим услугам».

Качество: HDTVRip
Формат: AVI
Видео кодек: XviD
Аудио кодек: MP3
Видео: 720x400 (16:9), 25.000 fps, 1 704 Kbps (0.237 bit/pixel)
Аудио#1: 48.0 KHz, 2 ch, 128 Kbps, CBR Русский
General
Complete name : G:\Сериалы\Детектив Дрезден Секретные материалы (Досье Дрездена)\Детектив Дрезден - Секретные материалы\01 - Птицы одного полета.avi
Format : AVI
Format/Info : Audio Video Interleave
File size : 550 MiB
Duration : 41mn 46s
Overall bit rate : 1 842 Kbps
Writing application : VirtualDubMod 1.5.10.3 | www.virtualdub-fr.org || (build 2550/release)
Writing library : VirtualDubMod build 2550/release

Video
ID : 0
Format : MPEG-4 Visual
Format profile : Advanced Simple@L5
Format settings, BVOP : 1
Format settings, QPel : No
Format settings, GMC : No warppoints
Format settings, Matrix : Custom
Codec ID : XVID
Codec ID/Hint : XviD
Duration : 41mn 46s
Bit rate : 1 704 Kbps
Width : 720 pixels
Height : 400 pixels
Display aspect ratio : 16:9
Frame rate : 25.000 fps
Color space : YUV
Chroma subsampling : 4:2:0
Bit depth : 8 bits
Scan type : Progressive
Compression mode : Lossy
Bits/(Pixel*Frame) : 0.237
Stream size : 509 MiB (93%)
Writing library : XviD 1.2.1 (UTC 2008-12-04)

Audio
ID : 1
Format : MPEG Audio
Format version : Version 1
Format profile : Layer 3
Codec ID : 55
Codec ID/Hint : MP3
Duration : 41mn 46s
Bit rate mode : Constant
Bit rate : 128 Kbps
Channel(s) : 2 channels
Sampling rate : 48.0 KHz
Compression mode : Lossy
Stream size : 38.2 MiB (7%)
Alignment : Aligned on interleaves
Interleave, duration : 40 ms (1.00 video frame)
Interleave, preload duratio : 504 ms
Writing library : LAME3.98r
Encoding settings : -m s -V 4 -q 0 -lowpass 17 -b 128

pb.wtf



Скачать Детектив Дрезден: Секретные материалы через торрент http://pic1.kartinco.top/images/9/ahexy.jpg Скачать фильм Детектив Дрезден: Секретные материалы через торрент бесплантно в хорошем качестве Описание: Гарри Дрезден — единственный чародей, который дает объявления в Чикагскую телефонную книгу. Он грешит, но и против него «грешат». ... 9.4 10 5
Торрент: Зарегистрирован [2015-02-17 08:06] · скачан: 106 раз
Статус: √ проверено
Размер: 6.45 GB
Как cкачать? Как скачать Детектив Дрезден: Секретные материалы через торрент | qTorrent

28-11-2019 20:33  

Отключить всю рекламу на сайте

17-02-2015 19:38 Детектив Дрезден: Секретные материалы Скачать торрент  

Его же закрыли?pb.wtf



19-02-2015 07:08 Детектив Дрезден: Секретные материалы Скачать торрент  

Viber писал(а):

Его же закрыли?

даpb.wtf



18-04-2015 20:51 Детектив Дрезден: Секретные материалы Скачать торрент  

Хороший сериал бы был, еслиб продолжили.pb.wtf



    Дорогой пользователь! Огромная просьба, поблагодарите релизера, оцените раздачу и оставьте свои комментарий, если Вы скачали Детектив Дрезден: Секретные материалы через торрент бесплатно! Внесите свою лепту в развитие PiratBit!
    Комментировать посты могут только пользователи прошедшие не сложную регистрацию
    Показать сообщения:    

    Детектив Дрезден: Секретные материалы через торрент
    Скачать бесплатно Детектив Дрезден: Секретные материалы
    Детектив Дрезден: Секретные материалы скачать торрент
    Детектив Дрезден: Секретные материалы смотреть онлайн
    Cкачать фильм Детектив Дрезден: Секретные материалы бесплатно
    Детектив Дрезден: Секретные материалы скачать торрент в хорошем качестве
    Детектив Дрезден: Секретные материалы смотреть онлайн бесплатно в хорошем качестве


    Вы не можете начинать темы
    Вы не можете отвечать на сообщения
    Вы не можете редактировать свои сообщения
    Вы не можете удалять свои сообщения
    Вы не можете голосовать в опросах
    Вы не можете прикреплять файлы к сообщениям
    Вы можете скачивать файлы