новый адрес
Мега распродажа FORZA HORIZON 4 ULTIMATE+ВСЕ DLC+ОНЛАЙН всего за 499р. 349 руб. (супер цена). Внимание количество ограничено!!!

iTunes

1+1

iTunes

мы

iTunes

1

iTunes

Чернобыль

iTunes

Ральф против интернета

Лицензия

ПШазам

Лицензия

Оно 2

Лицензия

30
pack

ВАЖНО

!!Акция!!

Alien_RageХит недели

RePack

Resident Evil 21

ИГРА 18+

pack

RePack

Metro:Exodus

!!Акция!!

Alien_Rage

RePack

fifa19

RePack

Assassins Creed: Odyssey

RePack

NEED FOR SPEED™ PAYBACK

3 сезон

9 сезон

Бесстыжие 9 сезон

Все сериалы

все сериалы на PB.wtf

RePack

FAR CRY 5
Ребята, катастрофически не хватает 1900р. для оплаты серверов за Октябрь (всвязи с блокировками трафик упал в 3 раза), 1-2р., выручайте.
  

Первая Конная (Ефим Дзиган) [1941, военный, история, DVDRip от New-Team] pb.wtf

Первая Конная через торрент pb.wtf

Размер: 1.46 GB | Добавлен: 4 года 9 мес. назад | Торрент скачан:34 раза
Скачать  

17-02-2015 10:11 Первая Конная Скачать торрент  

Первая Конная
Страна: СССР

Производство: Мосфильм

Жанр: военный, история

Год выпуска: 1941

Продолжительность: 01:37:28

Перевод: Не требуется

Cубтитры: нет

Оригинальная аудиодорожка: русский

Режиссер: Ефим Дзиган

В ролях:

Семен Гольдштаб, Николай Боголюбов, Александр Хвыля, Владимир Кабатченко, П. Новик, Яков Рыков, Михаил Викторов, Михаил Брылкин, Раиса Есипова, Михаил Яншин...

Описание:

По одноименной пьесе Всеволода Вишневского. Пьеса В.Вишневского "Первая Конная" была написана в 1929 и долгое время не сходила со сценических подмостков. В фильме снимался Фомин - проводник вагона И.В.Сталина в период 1919-21 гг., на которого здесь была возложена роль консультанта. Сценарий обсуждался с участием наркома обороны СССР К.Е. Ворошилова и его заместителя Е. А. Щаденко. Фильм конкурировал со снимавшейся тогда братьями Васильевыми картиной "Оборона Царицына", эпизоды с участием Сталина и Ворошилова редактировались на "самом верху", вся работа затянулась надолго. Съемки нового варианта фильма начались к осени 1939 года, когда картина неожиданно обрела вполне направленный пропагандистский смысл: мирный договор СССР с Германией и нападение Гитлера на Польшу придали фильму откровенна антипольскую направленность. Осенью 1940 года картина наконец была завершена. К.Е,Ворошилов и С.К. Тимошенко фильм ввдели и оценили его отрицательно. Окончательное решение о принятии картины перенесли на срок после показа фильма С.М. Будённому и Кулику. Возможно, встал вопрос о новых переделках, но им помешала война и вместе с ней - новая политическая конъюнктура - антинемецкая, а не антипольская, резко отличная от прежней. К тому же, запрещение в I942 году второй серии фильма "Оборона Царицына" ясно показало, что новый политический курс изменился не только во внешней, но и во внутренней политике...









Источник: DVD5 R5

Качество видео: DVDRip

Формат видео: AVI

Видео кодек: XViD

Аудио кодек: AC3

Видео: 688x512 (4:3), 25 fps, XviD ~ 1937 kbps avg, 0.220 bit/pixel

Аудио: 48 kHz, Dolby Digital AC3 2.0, 192 kbps

Раздача от:
Общее

Полное имя : Pervaya.Konnaya.1941.DVDRip_[New-team]_by_AVP_Studio.avi

Формат : AVI

Формат/Информация : Audio Video Interleave

Размер файла : 1,46 Гбайт

Продолжительность : 1 ч. 37 м.

Общий поток : 2139 Кбит/сек

Программа кодирования : VirtualDubModRus 1.5.10.2 (build 2542/release)

Библиотека кодирования : VirtualDubMod build 2542/release

Видео

Идентификатор : 0

Формат : MPEG-4 Visual

Профиль формата : Advanced Simple@L5

Параметр BVOP формата : 1

Параметр QPel формата : Нет

Параметр GMC формата : Без точки перехода

Параметр матрицы формата : Выборочная

Идентификатор кодека : XVID

Идентификатор кодека/Подсказка : XviD

Продолжительность : 1 ч. 37 м.

Битрейт : 1937 Кбит/сек

Ширина : 688 пикселей

Высота : 512 пикселей

Соотношение сторон : 4:3

Частота кадров : 25,000 кадров/сек

Цветовое пространство : YUV

Субдискретизация насыщенности : 4:2:0

Битовая глубина : 8 бит

Тип развёртки : Прогрессивная

Метод сжатия : С потерями

Бит/(Пиксели*Кадры) : 0.220

Размер потока : 1,32 Гбайт (91%)

Библиотека кодирования : XviD 73

Аудио

Идентификатор : 1

Формат : AC-3

Формат/Информация : Audio Coding 3

Расширение режима : CM (complete main)

Параметр Endianness формата : Big

Идентификатор кодека : 2000

Продолжительность : 1 ч. 37 м.

Вид битрейта : Постоянный

Битрейт : 192 Кбит/сек

Каналы : 2 канала

Расположение каналов : Front: L R

Частота : 48,0 КГц

Битовая глубина : 16 бит

Метод сжатия : С потерями

Размер потока : 134 Мбайт (9%)

Выравнивание : Разделение по промежуткам

Продолжительность промежутка : 40 мс. (1,00 видеокадр)

Время предзагрузки промежутка : 500 мс
pb.wtf



Скачать Первая Конная через торрент http://s019.radikal.ru/i631/1502/35/6f8f2ef3ebe5.png Скачать фильм Первая Конная через торрент бесплантно в хорошем качестве Описание:По одноименной пьесе Всеволода Вишневского. Пьеса В.Вишневского "Первая Конная" была написана в 1929 и долгое время не сходила со ... 10 10 5
Торрент: Зарегистрирован [2015-02-17 10:11] · скачан: 34 раз
Статус: √ проверено
Размер: 1.46 GB
Как cкачать? Как скачать Первая Конная через торрент | qTorrent

% Раздел Тема Автор DL S | L
Фантастика [ 649 MB ] Виталий Останин - Остерия "Старый Конь". Дело Первое: Кьята [Илья Дементьев 2018 256 kbps MP3] oleg8 Скачать
1 | 0
Кино СССР [ 1.09 GB ] Первая конная [1984 СССР военный история DVDRip-AVC от AVP Studio] AVP Studio Скачать
1 | 0
Кино СССР [ 1.09 GB ] Первая конная [1984 СССР военный история DVDRip от AVP Studio] AVP Studio Скачать
1 | 0
Кино СССР [ 1.16 GB ] Первая конная [1984 военный история SATRip] Assasinca Скачать
1 | 0


>> Регистрируемся здесь <<






Отзывы и комментарии о схеме читаем и пишем здесь: ---> Отзывы и комментарии о схеме

Новые благодарочки в телеграм довольных пользователей:
скриншот   скриншот   скриншот   скриншот   скриншот
    Дорогой пользователь! Огромная просьба, поблагодарите релизера, оцените раздачу и оставьте свои комментарий, если Вы скачали Первая Конная через торрент бесплатно! Внесите свою лепту в развитие PiratBit!
    Комментировать посты могут только пользователи прошедшие не сложную регистрацию
    Показать сообщения:    

    Первая Конная через торрент
    Скачать бесплатно Первая Конная
    Первая Конная скачать торрент
    Первая Конная смотреть онлайн
    Cкачать фильм Первая Конная бесплатно
    Первая Конная скачать торрент в хорошем качестве
    Первая Конная смотреть онлайн бесплатно в хорошем качестве


    Вы не можете начинать темы
    Вы не можете отвечать на сообщения
    Вы не можете редактировать свои сообщения
    Вы не можете удалять свои сообщения
    Вы не можете голосовать в опросах
    Вы не можете прикреплять файлы к сообщениям
    Вы можете скачивать файлы