новый адрес
Ссылка на приватное зеркало всего за 1$. Внимание количество ограничено!!!

iTunes

1+1

iTunes

мы

iTunes

1

iTunes

Чернобыль

iTunes

Ральф против интернета

Лицензия

ПШазам

Лицензия

Оно 2

Лицензия

30
pack

Вам бонус

ВАЖНО

!!Акция!!

Alien_RageХит недели

RePack

Resident Evil 21

ИГРА 18+

pack

RePack

jed

!!Акция!!

Alien_Rage

RePack

fifa19

RePack

Assassins Creed: Odyssey

RePack

NEED FOR SPEED™ PAYBACK

3 сезон

9 сезон

Бесстыжие 9 сезон

Все сериалы

все сериалы на PB.wtf

RePack

FAR CRY 5
Ребята, катастрофически не хватает 1900р. для оплаты серверов за Октябрь (всвязи с блокировками трафик упал в 3 раза), 1-2р., выручайте.
  

Волшебное зерно (ёдор Филиппов, Валентин Кадочников) [1941, фэнтези, семейный, DVDRip от New-Team] pb.wtf

Волшебное зерно через торрент pb.wtf

Размер: 744 MB | Добавлен: 4 года 9 мес. назад | Торрент скачан:5 раз
Скачать  

17-02-2015 10:21 Волшебное зерно Скачать торрент  

Волшебное зерно
Страна: СССР

Производство: Мосфильм, ЦОКС

Жанр: фэнтези, семейный

Год выпуска: 1941

Продолжительность: 01:23:00

Перевод: Не требуется

Cубтитры: нет

Оригинальная аудиодорожка: русский

Режиссер: Фёдор Филиппов, Валентин Кадочников

В ролях:

Владимир Тумаларьянц, Нина Заварова, Владимир Грибков, Иван Переверзев, Г. Киреевская, Олег Бант, Алексей Кельберер, Сергей Мартинсон, О. Торопова, Степан Каюков...

Описание:

Богатырь Мастер На Все Руки дарит Андрейке и Марийке волшебное зерно, которое должно принести людям радость и изобилие, если дети будут крепко дружить и тщательно заботиться о нем. Копия этого зерна хранится в железном сундуке злого волшебника Кара-Мора, врага всего живого. Кара-Мор, узнав о том, что дети посадили зерно и тщательно оберегают росток, посылает армию вредителей-долгоносиков и требует уничтожить растение, пока оно не принесло плодов - новых зерен счастья и изобилия...









Источник: DVD5 R5

Качество видео: DVDRip

Формат видео: AVI

Видео кодек: XViD

Аудио кодек: MP3

Видео: 640x480 (4:3), 25 fps, XviD ~ 1115 kbps avg, 0.145 bit/pixel

Аудио: 48 kHz, MP3 2.0, 128 kbps

Раздача от:
Общее

Полное имя : Volshebnoe.zerno.1941.DVDRip-745_[New-team]_by_AVP_Studio.avi

Формат : AVI

Формат/Информация : Audio Video Interleave

Размер файла : 744 Мбайт

Продолжительность : 1 ч. 22 м.

Общий поток : 1253 Кбит/сек

Программа кодирования : VirtualDubModRus 1.5.10.2 (build 2542/release)

Библиотека кодирования : VirtualDubMod build 2542/release

Видео

Идентификатор : 0

Формат : MPEG-4 Visual

Профиль формата : Advanced Simple@L5

Параметр BVOP формата : 1

Параметр QPel формата : Нет

Параметр GMC формата : Без точки перехода

Параметр матрицы формата : Выборочная

Идентификатор кодека : XVID

Идентификатор кодека/Подсказка : XviD

Продолжительность : 1 ч. 22 м.

Битрейт : 1115 Кбит/сек

Ширина : 640 пикселей

Высота : 480 пикселей

Соотношение сторон : 4:3

Частота кадров : 25,000 кадров/сек

Цветовое пространство : YUV

Субдискретизация насыщенности : 4:2:0

Битовая глубина : 8 бит

Тип развёртки : Прогрессивная

Метод сжатия : С потерями

Бит/(Пиксели*Кадры) : 0.145

Размер потока : 662 Мбайт (89%)

Библиотека кодирования : XviD 73

Аудио

Идентификатор : 1

Формат : MPEG Audio

Версия формата : Version 1

Профиль формата : Layer 3

Идентификатор кодека : 55

Идентификатор кодека/Подсказка : MP3

Продолжительность : 1 ч. 22 м.

Вид битрейта : Постоянный

Битрейт : 128 Кбит/сек

Каналы : 2 канала

Частота : 48,0 КГц

Метод сжатия : С потерями

Размер потока : 76,0 Мбайт (10%)

Выравнивание : Соединение по промежуткам

Продолжительность промежутка : 40 мс. (1,00 видеокадр)

Время предзагрузки промежутка : 504 мс.

Библиотека кодирования : LAME3.99r

Настройки программы : -m s -V 4 -q 2 -lowpass 17 -b 128
pb.wtf



Скачать Волшебное зерно через торрент http://s017.radikal.ru/i401/1502/3e/9e4172f48a9c.png Скачать фильм Волшебное зерно через торрент бесплантно в хорошем качестве Описание: Богатырь Мастер На Все Руки дарит Андрейке и Марийке волшебное зерно, которое должно принести людям радость и изобилие, если дети ... 10 10 3
Торрент: Зарегистрирован [2015-02-17 10:21] · скачан: 5 раз
Статус: √ проверено
Размер: 744 MB
Как cкачать? Как скачать Волшебное зерно через торрент | qTorrent

17-02-2015 11:34 Волшебное зерно Скачать торрент  

Ёдор! pb.wtf



    Дорогой пользователь! Огромная просьба, поблагодарите релизера, оцените раздачу и оставьте свои комментарий, если Вы скачали Волшебное зерно через торрент бесплатно! Внесите свою лепту в развитие PiratBit!
    Комментировать посты могут только пользователи прошедшие не сложную регистрацию
    Показать сообщения:    

    Волшебное зерно через торрент
    Скачать бесплатно Волшебное зерно
    Волшебное зерно скачать торрент
    Волшебное зерно смотреть онлайн
    Cкачать фильм Волшебное зерно бесплатно
    Волшебное зерно скачать торрент в хорошем качестве
    Волшебное зерно смотреть онлайн бесплатно в хорошем качестве


    Вы не можете начинать темы
    Вы не можете отвечать на сообщения
    Вы не можете редактировать свои сообщения
    Вы не можете удалять свои сообщения
    Вы не можете голосовать в опросах
    Вы не можете прикреплять файлы к сообщениям
    Вы можете скачивать файлы