Ссылка на приватное зеркало нашего сайта всего за 1$. Внимание количество ограничено!!!

2 сезон

iTunes

1 сезон

1

iTunes

iTunes

iTunes

1 сезон

RePack

30

ИГРА 18+

pack

ВАЖНО

!!Акция!!

Alien_RageХит недели

RePack

MK11
pack

Забери бонус

RePack

jed

!!Акция!!

Alien_Rage

RePack

fifa19

RePack

Assassins Creed: Odyssey

RePack

NEED FOR SPEED™ PAYBACK

4 сезон

9 сезон

Бесстыжие 9 сезон

Все сериалы

все сериалы на PB.wtf

RePack

FAR CRY 5
  

Ярмарка тщеславия / Vanity Fair (Мира Наир ) [2004, драма, BDRip 1080p, Профессиональный (многоголосый)+ AVO pb.wtf

Ярмарка тщеславия через торрент pb.wtf

Раздают: 1 [ 0 KB/s ]
Размер: 11.74 GB | Добавлен: 5 лет 8 мес. назад | Торрент скачан:36 раз
Скачать  

17-02-2015 10:29 Ярмарка тщеславия Скачать торрент  


Ярмарка тщеславия / Vanity Fair
«In a time of social climbers, Becky Sharp is a mountaineer»

ИНФОРМАЦИЯ:
Год выпуска:2004
Страна:США, Великобритания, Индия
Жанр:драма
Продолжительность02:20:43
Перевод:Профессиональный (многоголосый)
Субтитры: русские,
Режиссер:Мира Наир

В Ролях:


Риз Уизерспун (Becky Sharp), Ромола Гарай (Amelia Sedley), Джеймс Пьюрфой (Rawdon Crawley), Джонатан Риз Майерс (George Osborne), Гэбриел Бирн (The Marquess of Steyne), Анджелика Мэнди (Young Becky Sharp), Роджер Ллойд Пэк (Francis Sharp), Рут Шин (Miss Pinkerton), Кейт Флитвуд (Miss Pinkerton's Crone), Лиллет Дюбей (Ms. Green), Тони Модсли (Joseph Sedley), Дебора Файндлей (Mrs. Mary Sedley)

ОПИСАНИЕ:
Осиротевшая дочь художника и певицы Беки Шарп выросла в бедных кварталах Лондона, но всегда надеялась, что сможет войти в высшее общество. Используя ум, обаяние, красоту, хорошее воспитание, Беки начинает восходить по социальной лестнице вместе со своей подругой Амелией, отчаянно преодолевая противодействие общества.
Фильм охватывает бурные двадцать лет из жизни главной героини, успевшей за это время выйти замуж, родить ребенка, пережить наполеоновские войны и многое другое. Но настоящий звёздный час для Беки пробивает, когда она привлекает к себе внимание скучающего маркиза, коллекционирующего картины её отца.

  • Мировая премьера:1 сентября 2004

    ТЕХ.ДАННЫЕ:
    Качество: BDRip 1080p
    Формат: MKV ✦ Видео кодек: AVC ✦ Аудио кодек: AC3, DTS
    Видео: 1920x816 (2.35:1)| 9604 kbps| 23,976 fps| 0,256 bpp
    Аудио №1: русский | 5.1 | 48 kHz | 384 kbps | 16 bit | || [Многоголосый закадровый, профессиональный]
    Аудио №2: русский | 5.1 | 48 kHz | 448 kbps | 16 bit | || [Одноголосый авторский, Евгений Гранкин]
    Аудио №3: английский | 5.1 | 48 kHz | 1510 kbps | 24 bit |


    Код:

    General
    Unique ID                                : 215251017030831706355683030501226634378 (0xA1EFD68250A1902D84DE17BD604ADC8A)
    Complete name                            : D:\Торенты\Yarmarka.tcheslaviya.2004.x264. BDRip 1080p..mkv
    Format                                   : Matroska
    Format version                           : Version 2
    File size                                : 11.7 GiB
    Duration                                 : 2h 20mn
    Overall bit rate                         : 11.9 Mbps
    Movie name                               : Vanity.Fair.2004.1080p.BluRay.x264-PFa
    Encoded date                             : UTC 2010-09-25 05:13:56
    Writing application                      : mkvmerge v3.2.0 ('Beginnings') built on Feb 12 2010 16:46:17
    Writing library                          : libebml v0.7.9 + libmatroska v0.8.1

    Video
    ID                                       : 1
    Format                                   : AVC
    Format/Info                              : Advanced Video Codec
    Format profile                           : High@L4.1
    Format settings, CABAC                   : Yes
    Format settings, ReFrames                : 4 frames
    Codec ID                                 : V_MPEG4/ISO/AVC
    Duration                                 : 2h 20mn
    Bit rate                                 : 9 604 Kbps
    Width                                    : 1 920 pixels
    Height                                   : 816 pixels
    Display aspect ratio                     : 2.35:1
    Frame rate                               : 23.976 fps
    Color space                              : YUV
    Chroma subsampling                       : 4:2:0
    Bit depth                                : 8 bits
    Scan type                                : Progressive
    Bits/(Pixel*Frame)                       : 0.256
    Stream size                              : 9.21 GiB (78%)
    Writing library                          : x264 core 104 r1713 c276662
    Encoding settings                        : cabac=1 / ref=4 / deblock=1:0:0 / analyse=0x3:0x133 / me=umh / subme=8 / psy=1 / psy_rd=1.00:0.00 / mixed_ref=1 / me_range=16 / chroma_me=1 / trellis=1 / 8x8dct=1 / cqm=0 / deadzone=21,11 / fast_pskip=0 / chroma_qp_offset=-2 / threads=3 / sliced_threads=0 / nr=0 / decimate=1 / interlaced=0 / constrained_intra=0 / bframes=3 / b_pyramid=2 / b_adapt=1 / b_bias=0 / direct=1 / weightb=1 / open_gop=0 / weightp=2 / keyint=250 / keyint_min=23 / scenecut=40 / intra_refresh=0 / rc_lookahead=40 / rc=2pass / mbtree=1 / bitrate=9604 / ratetol=1.0 / qcomp=0.60 / qpmin=10 / qpmax=51 / qpstep=4 / cplxblur=20.0 / qblur=0.5 / ip_ratio=1.40 / aq=1:1.00
    Language                                 : English
    Default                                  : No
    Forced                                   : No

    Audio #1
    ID                                       : 2
    Format                                   : AC-3
    Format/Info                              : Audio Coding 3
    Mode extension                           : CM (complete main)
    Codec ID                                 : A_AC3
    Duration                                 : 2h 20mn
    Bit rate mode                            : Constant
    Bit rate                                 : 384 Kbps
    Channel(s)                               : 6 channels
    Channel positions                        : Front: L C R, Side: L R, LFE
    Sampling rate                            : 48.0 KHz
    Bit depth                                : 16 bits
    Compression mode                         : Lossy
    Delay relative to video                  : 946ms
    Stream size                              : 387 MiB (3%)
    Title                                    : CP Digital
    Language                                 : Russian
    Default                                  : Yes
    Forced                                   : No

    Audio #2
    ID                                       : 3
    Format                                   : AC-3
    Format/Info                              : Audio Coding 3
    Mode extension                           : CM (complete main)
    Codec ID                                 : A_AC3
    Duration                                 : 2h 20mn
    Bit rate mode                            : Constant
    Bit rate                                 : 448 Kbps
    Channel(s)                               : 6 channels
    Channel positions                        : Front: L C R, Side: L R, LFE
    Sampling rate                            : 48.0 KHz
    Bit depth                                : 16 bits
    Compression mode                         : Lossy
    Delay relative to video                  : 950ms
    Stream size                              : 451 MiB (4%)
    Title                                    : Евгений Гранкин
    Language                                 : Russian
    Default                                  : No
    Forced                                   : No

    Audio #3
    ID                                       : 4
    Format                                   : DTS
    Format/Info                              : Digital Theater Systems
    Codec ID                                 : A_DTS
    Duration                                 : 2h 20mn
    Bit rate mode                            : Constant
    Bit rate                                 : 1 510 Kbps
    Channel(s)                               : 6 channels
    Channel positions                        : Front: L C R, Side: L R, LFE
    Sampling rate                            : 48.0 KHz
    Bit depth                                : 24 bits
    Compression mode                         : Lossy
    Stream size                              : 1.48 GiB (13%)
    Language                                 : English
    Default                                  : No
    Forced                                   : No

    Text
    ID                                       : 5
    Format                                   : UTF-8
    Codec ID                                 : S_TEXT/UTF8
    Codec ID/Info                            : UTF-8 Plain Text
    Language                                 : Russian
    Default                                  : Yes
    Forced                                   : No

    Скриншоты:


    © Оформление by Ворон
    pb.wtf



  • Скачать Ярмарка тщеславия через торрент http://pic.kartinco.top/images/6/ordi9.jpg Скачать фильм Ярмарка тщеславия через торрент бесплантно в хорошем качестве Е:Осиротевшая дочь художника и певицы Беки Шарп выросла в бедных кварталах Лондона, но всегда надеялась, что сможет войти в высшее ... 10 10 2
    Торрент: Зарегистрирован [2015-02-17 10:29] · скачан: 36 раз
    Статус: √ проверено
    Размер: 11.74 GB
    Как cкачать? Как скачать Ярмарка тщеславия через торрент | qTorrent

    % Раздел Тема Автор DL S | L
    Фильмы [HD 720p, 1080p] (Хороший звук DUB, MVO) [ 14.5 GB ] Ярмарка тщеславия / Vanity Fair [2004 BDRip 1080p by msltel] 2 x MVO AVO msltel Скачать
    1 | 0
    Фильмы [HD 720p, 1080p] (Хороший звук DUB, MVO) [ 5.93 GB ] Ярмарка тщеславия / Vanity Fair [2004 BDRip 720p by msltel] 2 x MVO AVO msltel Скачать
    1 | 0
    Фильмы 2001-2005 [ 3.58 GB ] Ярмарка тщеславия / Vanity Fair [2004 BDRip-AVC by msltel] 2 x MVO AVO msltel Скачать
    1 | 0

    28-11-2019 20:33  

    Отключить всю рекламу на сайте

      Дорогой пользователь! Огромная просьба, поблагодарите релизера, оцените раздачу и оставьте свои комментарий, если Вы скачали Ярмарка тщеславия через торрент бесплатно! Внесите свою лепту в развитие PiratBit!
      Комментировать посты могут только пользователи прошедшие не сложную регистрацию
      Показать сообщения:    

      Ярмарка тщеславия через торрент
      Скачать бесплатно Ярмарка тщеславия
      Ярмарка тщеславия скачать торрент
      Ярмарка тщеславия смотреть онлайн
      Cкачать фильм Ярмарка тщеславия бесплатно
      Ярмарка тщеславия скачать торрент в хорошем качестве
      Ярмарка тщеславия смотреть онлайн бесплатно в хорошем качестве


      Вы не можете начинать темы
      Вы не можете отвечать на сообщения
      Вы не можете редактировать свои сообщения
      Вы не можете удалять свои сообщения
      Вы не можете голосовать в опросах
      Вы не можете прикреплять файлы к сообщениям
      Вы можете скачивать файлы