Лицензия

MVO

1

1 сезон

Лицензия

Лицензия

13

MVO

1 сезон

Deluxe Edition

pack

Рекомендуем

30

Repack

ВАЖНО

ВАЖНО

Ghostwire

RePack

jed

RePack

fifa19

RePack

RDR2

RePack

NEED FOR SPEED™ PAYBACK

RePack

Кинопоиск HD

 Острые козырьки 6 сезон

6 сезон

FAR CRY 6

RePack

Лицензия

MVO

1

1 сезон

1 сезон

Лицензия

  

Пингвины Мадагаскара / Penguins of Madagascar (Эрик Дарнелл, Саймон Дж. Смит) [2014 г., Мультфильм, комедия, приключения, семейный, полнометражный, BD-Remux, Дубляж [iTunes]]

Пингвины Мадагаскара через торрент pb.wtf

Размер: 15.98 GB | Добавлен: 7 лет 7 мес. назад | Торрент скачан:137 раз
Смотреть онлайн Пингвины Мадагаскара | Скачать   

17-02-2015 10:54 Пингвины Мадагаскара Скачать торрент  

Пингвины Мадагаскара / Penguins of Madagascar
Год выпуска: 2014
Страна: США
Жанр: Мультфильм, комедия, приключения, семейный, полнометражный
Продолжительность: 01:32:19
Перевод: Дубляж [iTunes]+Оригинал
Субтитры: Русские, украинские

Режиссер: Эрик Дарнелл, Саймон Дж. Смит

В ролях: Том МакГрат, Крис Миллер, Кристофер Найтс, Бенедикт Камбербэтч, Петер Стормаре, Джон Малкович, Кен Жонг, Аннет Махендру

Описание: Сверхсекретные операции, железная дисциплина и выдержка, а главное, феноменальная находчивость — вот критерии успешной миссии, даже если она кажется невыполнимой.

Качество: BD-Remux
Формат: MKV
Видео кодек: H.264
Аудио кодек: AC3
Видео: MPEG-4 ,AVC (1920x1080), 23878 Кбит/с, 23.976 кадра/сек
Аудио#1: AC3,6 ch,384 kbps (Rus) 48.0 KHz Дублированный [iTunes]
Аудио#2: AC3,6 ch,384 kbps (Eng) 48.0 KHz Оригинал
Аудио#3: AC3,2 ch,128 kbps (Eng) 48.0 KHz Оригинал
скриншот   скриншот   скриншот  

Тип потока: Видео
Длительность: 01:32:19
Кодек: AVC
Кодек/описание: Advanced Video Codec
Кодек/профиль: [email protected]
Кодек/ID: V_MPEG4/ISO/AVC
Кодек/CABAC: Yes
Кодек/ReFrames: 2 frames
Размеры изображения: 1920 x 1080 (16:9)
Частота кадров: 23.976 fps
Частота кадров/тип: Constant
Размер потока: 15.1 GiB (94%)
Битрейт: 23.4 Mbps
Битрейт/макс: 40.0 Mbps
Битрейт/тип: VBR
Цветовое пространство: YUV
Тип развёртки: Progressive
Колориметрия: 4:2:0
Глубина: 8 bits
:
Тип потока: Звук #1
Язык: Russian
Длительность: 01:32:19.618
Кодек: AC-3
Кодек/описание: Audio Coding 3
Кодек/ID: A_AC3
Частота дискретизации: 48.0 KHz
Каналов: 6 channels
Битрейт: 384 Kbps
Битрейт/тип: Constant
Размер потока: 254 MiB (2%)
Глубина: 16 bits
Метод сжатия: Lossy
:
Тип потока: Звук #2
Язык: English
Длительность: 01:32:19.618
Кодек: AC-3
Кодек/описание: Audio Coding 3
Кодек/ID: A_AC3
Частота дискретизации: 48.0 KHz
Каналов: 6 channels
Битрейт: 384 Kbps
Битрейт/тип: Constant
Размер потока: 254 MiB (2%)
Глубина: 16 bits
Метод сжатия: Lossy
:
Тип потока: Звук #3
Язык: English
Длительность: 01:32:19.618
Кодек: AC-3
Кодек/описание: Audio Coding 3
Кодек/ID: A_AC3
Частота дискретизации: 48.0 KHz
Каналов: 2 channels
Битрейт: 128 Kbps
Битрейт/тип: Constant
Размер потока: 84.5 MiB (1%)
Глубина: 16 bits
Метод сжатия: Lossy
:
Тип потока: Субтитры #1
Язык: Russian
Формат: UTF-8
Формат/подробно: UTF-8 Plain Text
Название: Forced
:
Тип потока: Субтитры #2
Язык: Russian
Формат: UTF-8
Формат/подробно: UTF-8 Plain Text
:
Тип потока: Субтитры #3
Язык: Ukrainian
Формат: UTF-8
Формат/подробно: UTF-8 Plain Text
Название: Forced
:
Тип потока: Субтитры #4
Язык: Ukrainian
Формат: UTF-8
Формат/подробно: UTF-8 Plain Text




Скачать Пингвины Мадагаскара через торрент https://pic1.kartinco.top/images/9/lble4.jpg Скачать, смотреть онлайн Пингвины Мадагаскара бесплантно в хорошем качестве Описание: Сверхсекретные операции, железная дисциплина и выдержка, а главное, феноменальная находчивость — вот критерии успешной миссии, ... 10 10 7
Info! Золотая раздача, скачанное не засчитывается.
Торрент: Зарегистрирован [2015-02-17 10:54] · скачан: 137 раз
Статус: √ проверено
Размер: 15.98 GB
Как cкачать? Как скачать Пингвины Мадагаскара через торрент | UTorrent

% Раздел Тема Автор DL S | L
Зарубежные Мультфильмы (BDRip 1080p, 720p, Blu-ray, BD-Remux) [ 4.36 GB ] Пингвины Мадагаскара / Penguins of Madagascar | Лицензия | 1080p, HEVC (10bit Мичман37 Скачать
1 | 0
Мультфильмы (48-60 fps) [ 3.69 GB ] Пингвины Мадагаскара / Penguins of Madagascar | Дубляж | BDRip-AVC 60fps, Дубляж Tiberiumsun69 Скачать
1 | 0
Мультфильмы (48-60 fps) [ 4.74 GB ] Пингвины Мадагаскара / Penguins of Madagascar | DUB от NNNB | 720p / 60 fps еnvy Скачать
1 | 0
Иностранные мультфильмы [ 1.46 GB ] Пингвины Мадагаскара / Penguins of Madagascar | Лицензия" | HDRip, Дубляж, "Лицензия" coc900 Скачать
1 | 0
Зарубежные Мультфильмы (BDRip 1080p, 720p, Blu-ray, BD-Remux) [ 9.99 GB ] Пингвины Мадагаскара / Penguins of Madagascar | us | 1080p Seedtank Скачать
1 | 0
Иностранные мультфильмы [ 1.71 GB ] Пингвины Мадагаскара / Penguins of Madagascar | iTunes Russia | BDRip-AVC от ExKinoRay / iTunes Russia Ворон Скачать
1 | 0
Зарубежные Мультфильмы (BDRip 1080p, 720p, Blu-ray, BD-Remux) [ 7.43 GB ] Пингвины Мадагаскара / Penguins of Madagascar | iTunes | 1080p, Дубляж Ворон Скачать
1 | 0

28-11-2019 20:33  

Отключить вcю реклaмy на сайте

17-02-2015 12:57 Пингвины Мадагаскара Скачать торрент  

3D скоро?



    Дорогой пользователь! Огромная просьба, поблагодарите релизера, оцените раздачу и оставьте свои комментарий, если Вы скачали Пингвины Мадагаскара через торрент бесплатно!!
    Комментировать посты могут только пользователи прошедшие не сложную регистрацию
    Показать сообщения:    


    Пингвины Мадагаскара через торрент
    Скачать бесплатно Пингвины Мадагаскара
    Пингвины Мадагаскара скачать торрент
    Пингвины Мадагаскара смотреть онлайн
    Cкачать фильм Пингвины Мадагаскара бесплатно
    Пингвины Мадагаскара скачать торрент в хорошем качестве
    Пингвины Мадагаскара смотреть онлайн бесплатно в хорошем качестве
    Вы не можете начинать темы
    Вы не можете отвечать на сообщения
    Вы не можете редактировать свои сообщения
    Вы не можете удалять свои сообщения
    Вы не можете голосовать в опросах
    Вы не можете прикреплять файлы к сообщениям
    Вы можете скачивать файлы