Ссылка на приватное зеркало нашего сайта всего за 1$. Внимание количество ограничено!!!

2 сезон

iTunes

1 сезон

1

iTunes

iTunes

iTunes

1 сезон

RePack

30

ИГРА 18+

pack

ВАЖНО

!!Акция!!

Alien_RageХит недели

RePack

MK11
pack

Забери бонус

RePack

jed

!!Акция!!

Alien_Rage

RePack

fifa19

RePack

Assassins Creed: Odyssey

RePack

NEED FOR SPEED™ PAYBACK

4 сезон

9 сезон

Бесстыжие 9 сезон

Все сериалы

все сериалы на PB.wtf

RePack

FAR CRY 5
  

После любви / A perdre la raison (Хоаким Лафосс) [2012, драма, BDRip 720p] MVO pb.wtf

После любви через торрент pb.wtf

Размер: 3.81 GB | Добавлен: 5 лет 8 мес. назад | Торрент скачан:5 раз
Скачать  

17-02-2015 11:32 После любви Скачать торрент  

После любви / A perdre la raison

Год выпуска: 2012
Страна: Бельгия, Люксембург, Франция, Швейцария
Жанр: драма
Продолжительность: 01:51:00
Перевод: профессиональный многоголосый
Субтитры: русские, английские

Режиссёр: Хоаким Лафосс

В ролях: Эмили Декьенн, Тахар Рахим, Янник Ренье, Байа Белаль, Нильс Ареструп, Стефан Биссо, Муния Рауи, Редуэн Бехаш, Натали Бутефо, Клер Бодсон

Описание: Бельгийский врач привозит в свою страну мароканского мальчика и воспитывает его как собственного сына. Повзрослев, юноша влюбляется и вступает в брак. Молодая супруга оказывается заложницей тяжёлой эмоциональной обстановки, которая неизбежно приведёт к трагическому концу. По мере рождения детей влияние доктора на семью становится всё более сильным, а его альтруизм переходит все границы...



Качество: BDRip 720p
Формат: MKV
Видео кодек: H.264
Аудио кодек: AC3
Видео: 3983 Кбит/с, 1280x534, 23.976 кадра/с, 0.243 bpp
Аудио 1: русский, AC3, 384 kbps, 6 ch, 48 kHz [профессиональный многоголосый, R5]
Аудио 2: французский, AC3, 448 kbps, 6 ch, 48 kHz [оригинал]

Имеются неименованные главы/чаптеры.
Сезар, 2013 год
Номинации (1):
Лучший фильм на иностранном языке

Каннский кинофестиваль, 2012 год
Номинации (1):
Особый взгляд Каннского кинофестиваля

Европейская киноакадемия, 2012 год
Номинации (1):
Лучшая женская роль (Эмили Декьенн)
Общее
Уникальный идентификатор : 197413731667623605179987040736327820969 (0x948480710FE3EE6BA8F98FE125B4E6A9)
Полное имя : D:VideoPosle ljubvi.2012.BDRip.720p.mkv
Формат : Matroska
Версия формата : Version 4 / Version 2
Размер файла : 3,81 Гбайт
Продолжительность : 1 ч. 51 м.
Общий поток : 4913 Кбит/сек
Дата кодирования : UTC 2015-02-17 03:56:38
Программа кодирования : mkvmerge v7.6.0 ('Garden of Dreams') 64bit built on Feb 8 2015 13:04:34
Библиотека кодирования : libebml v1.3.1 + libmatroska v1.4.2
DURATION : 01:49:44.035000000
NUMBER_OF_FRAMES : 929
NUMBER_OF_BYTES : 28544
_STATISTICS_WRITING_APP : mkvmerge v7.6.0 ('Garden of Dreams') 64bit built on Feb 8 2015 13:04:34
_STATISTICS_WRITING_DATE_UTC : 2015-02-17 03:56:38
_STATISTICS_TAGS : BPS DURATION NUMBER_OF_FRAMES NUMBER_OF_BYTES

Видео
Идентификатор : 1
Формат : AVC
Формат/Информация : Advanced Video Codec
Профиль формата : High@L4.1
Параметр CABAC формата : Да
Параметр ReFrames формата : 9 кадров
Идентификатор кодека : V_MPEG4/ISO/AVC
Продолжительность : 1 ч. 51 м.
Битрейт : 3983 Кбит/сек
Ширина : 1280 пикселей
Высота : 534 пикселя
Соотношение сторон : 2,40:1
Режим частоты кадров : Постоянный
Частота кадров : 23,976 кадра/сек
Цветовое пространство : YUV
Субдискретизация насыщенности : 4:2:0
Битовая глубина : 8 бит
Тип развёртки : Прогрессивная
Бит/(Пиксели*Кадры) : 0.243
Размер потока : 3,09 Гбайт (81%)
Библиотека кодирования : x264 core 142 r2431 ac76440
Настройки программы : cabac=1 / ref=9 / deblock=1:-1:-1 / analyse=0x3:0x113 / me=umh / subme=10 / psy=1 / psy_rd=1.00:0.15 / mixed_ref=1 / me_range=32 / chroma_me=1 / trellis=2 / 8x8dct=1 / cqm=0 / deadzone=21,11 / fast_pskip=1 / chroma_qp_offset=-3 / threads=6 / lookahead_threads=1 / sliced_threads=0 / nr=0 / decimate=1 / interlaced=0 / bluray_compat=0 / constrained_intra=0 / bframes=8 / b_pyramid=2 / b_adapt=2 / b_bias=0 / direct=3 / weightb=1 / open_gop=0 / weightp=2 / keyint=230 / keyint_min=23 / scenecut=40 / intra_refresh=0 / rc_lookahead=40 / rc=crf / mbtree=0 / crf=18.1 / qcomp=0.60 / qpmin=0 / qpmax=69 / qpstep=4 / vbv_maxrate=40000 / vbv_bufsize=50000 / crf_max=0.0 / nal_hrd=none / filler=0 / ip_ratio=1.40 / pb_ratio=1.30 / aq=1:1.00
Язык : French
Default : Да
Forced : Нет
DURATION : 01:50:59.820000000
NUMBER_OF_FRAMES : 159676
NUMBER_OF_BYTES : 3395985255
_STATISTICS_WRITING_APP : mkvmerge v7.6.0 ('Garden of Dreams') 64bit built on Feb 8 2015 13:04:34
_STATISTICS_WRITING_DATE_UTC : 2015-02-17 03:56:38
_STATISTICS_TAGS : BPS DURATION NUMBER_OF_FRAMES NUMBER_OF_BYTES

Аудио #1
Идентификатор : 2
Формат : AC-3
Формат/Информация : Audio Coding 3
Расширение режима : CM (complete main)
Параметр Endianness формата : Big
Идентификатор кодека : A_AC3
Продолжительность : 1 ч. 51 м.
Вид битрейта : Постоянный
Битрейт : 384 Кбит/сек
Каналы : 6 каналов
Расположение каналов : Front: L C R, Side: L R, LFE
Частота : 48,0 КГц
Битовая глубина : 16 бит
Метод сжатия : С потерями
Размер потока : 305 Мбайт (8%)
Заголовок : MVO (R5)
Язык : Russian
Default : Да
Forced : Нет

Аудио #2
Идентификатор : 3
Формат : AC-3
Формат/Информация : Audio Coding 3
Расширение режима : CM (complete main)
Параметр Endianness формата : Big
Идентификатор кодека : A_AC3
Продолжительность : 1 ч. 51 м.
Вид битрейта : Постоянный
Битрейт : 448 Кбит/сек
Каналы : 6 каналов
Расположение каналов : Front: L C R, Side: L R, LFE
Частота : 48,0 КГц
Битовая глубина : 16 бит
Метод сжатия : С потерями
Размер потока : 356 Мбайт (9%)
Заголовок : Original
Язык : French
Default : Нет
Forced : Нет

Текст #1
Идентификатор : 4
Формат : UTF-8
Идентификатор кодека : S_TEXT/UTF8
Идентификатор кодека/Информация : UTF-8 Plain Text
Заголовок : русский
Язык : Russian
Default : Нет
Forced : Нет

Текст #2
Идентификатор : 5
Формат : UTF-8
Идентификатор кодека : S_TEXT/UTF8
Идентификатор кодека/Информация : UTF-8 Plain Text
Заголовок : английский
Default : Нет
Forced : Нет

Меню
00:00:00.000 : :Chapter 01
00:04:22.135 : :Chapter 02
00:12:40.634 : :Chapter 03
00:23:40.669 : :Chapter 04
00:30:05.053 : :Chapter 05
00:37:06.223 : :Chapter 06
00:48:03.338 : :Chapter 07
00:58:27.754 : :Chapter 08
01:11:13.519 : :Chapter 09
01:26:10.415 : :Chapter 10
01:37:26.090 : :Chapter 11
01:44:28.512 : :Chapter 12
pb.wtf



Скачать После любви через торрент http://i65.fastpic.ru/big/2015/0217/73/c155d52387a43ce0771f87d3178c6d73.jpg Скачать фильм После любви через торрент бесплантно в хорошем качестве Описание: Бельгийский врач привозит в свою страну мароканского мальчика и воспитывает его как собственного сына. Повзрослев, юноша ... 10 10 1
Торрент: Зарегистрирован [2015-02-17 11:32] · скачан: 5 раз
Статус: √ проверено
Размер: 3.81 GB
Как cкачать? Как скачать После любви через торрент | qTorrent

% Раздел Тема Автор DL S | L
Фильмы [HD 720p, 1080p] (Хороший звук DUB, MVO) [ 9.31 GB ] После любви / A perdre la raison [2012 BDRip 1080p] MVO msltel Скачать
1 | 0
Фильмы 2012 [ 745 MB ] После любви / A perdre la raison [2012 Бельгия Люксембург Швейцария DVDRip] MVO dexter lex Скачать
1 | 0
Фильмы 2012 [ 1.46 GB ] После любви / A perdre la raison [2012 Бельгия Люксембург Швейцария DVDRip] MVO dexter lex Скачать
1 | 0
Фильмы 2012 [ 1.37 GB ] После любви / A perdre la raison [2012 DVDRip MVO лицензия] Ворон Скачать
1 | 0

28-11-2019 20:33  

Отключить всю рекламу на сайте

    Дорогой пользователь! Огромная просьба, поблагодарите релизера, оцените раздачу и оставьте свои комментарий, если Вы скачали После любви через торрент бесплатно! Внесите свою лепту в развитие PiratBit!
    Комментировать посты могут только пользователи прошедшие не сложную регистрацию
    Показать сообщения:    

    После любви через торрент
    Скачать бесплатно После любви
    После любви скачать торрент
    После любви смотреть онлайн
    Cкачать фильм После любви бесплатно
    После любви скачать торрент в хорошем качестве
    После любви смотреть онлайн бесплатно в хорошем качестве


    Вы не можете начинать темы
    Вы не можете отвечать на сообщения
    Вы не можете редактировать свои сообщения
    Вы не можете удалять свои сообщения
    Вы не можете голосовать в опросах
    Вы не можете прикреплять файлы к сообщениям
    Вы можете скачивать файлы