Мега распродажа FORZA HORIZON 4 ULTIMATE+ВСЕ DLC+ОНЛАЙН всего за 499р. 349 руб. (супер цена). Внимание количество ограничено!!!

iTunes

1+1

iTunes

мы

iTunes

1

1 сезон

Чернобыль

1 сезон

Ральф против интернета

Лицензия

ПШазам

8 сезон

Игра престолов

Лицензия

30
pack

ВАЖНО

!!Акция!!

Alien_RageХит недели

RePack

Resident Evil 21

ИГРА 18+

pack

RePack

Metro:Exodus

!!Акция!!

Alien_Rage

RePack

fifa19

RePack

Assassins Creed: Odyssey

RePack

NEED FOR SPEED™ PAYBACK

3 сезон

9 сезон

Бесстыжие 9 сезон

Все сериалы

все сериалы на PB.wtf

RePack

FAR CRY 5
Ребята, катастрофически не хватает 2730р. для оплаты серверов за ИЮНЬ (всвязи с блокировками трафик упал в 3 раза), 1-2р., выручайте.
  

Терминатор 2: Судный День / Terminator 2: Judgment Day (Джеймс Кэмерон) [1991 г., боевик, фантастика, триллер, BDRip, Профессиональный многоголосый] pb.wtf

Терминатор 2: Судный День через торрент pb.wtf

Раздают: 1 [ 0 KB/s ]
Размер: 1.45 GB | Добавлен: 4 года 4 мес. назад | Торрент скачан:446 раз
Скачать  

17-02-2015 17:01 Терминатор 2: Судный День Скачать торрент  

Терминатор 2: Судный День / Terminator 2: Judgment Day
Год выпуска: 1991
Страна: США
Жанр: боевик, фантастика, триллер
Продолжительность: 02:36:08
Перевод: Профессиональный многоголосый
Субтитры: нет

Режиссер: Джеймс Кэмерон

В ролях: Арнольд Шварценеггер, Линда Хэмилтон, Эдвард Ферлонг, Роберт Патрик, Эрл Боэн, Джо Мортон, С. Эпата Меркерсон, Кастуло Герра, Дэнни Кукси, Дженетт Голдстин

Описание: Прошло более десяти лет с тех пор, как киборг-терминатор из 2029 года пытался уничтожить Сару Коннор — женщину, чей будущий сын выиграет войну человечества против машин.
Теперь у Сары родился сын Джон и время, когда он поведёт за собой выживших людей на борьбу с машинами, неумолимо приближается. Именно в этот момент из постапокалиптического будущего прибывает новый терминатор — практически неуязвимый и способный принимать любое обличье. Цель нового терминатора уже не Сара, а уничтожение молодого Джона Коннора.
Однако шансы Джона на спасение существенно повышаются, когда на помощь приходит перепрограммированный сопротивлением терминатор предыдущего поколения. Оба киборга вступают в смертельный бой, от исхода которого зависит судьба человечества.

Качество: BDRip
Формат: AVI
Видео кодек: XviD
Аудио кодек: AC3
Видео: MPEG-4 ,Xvid (720x304), 1129 Кбит/с, 23.976 кадра/сек
Аудио#1: AC3,2 ch,192 kbps (Rus) 48.0 KHz Профессиональный (многоголосый, закадровый)
скриншот   скриншот   скриншот  

Тип потока: Видео
Длительность: 02:36:08
Кодек: MPEG-4 Visual
Кодек/профиль: Advanced Simple@L5
Кодек/ID: XVID
Размеры изображения: 720 x 304 (2.35:1)
Частота кадров: 23.976 fps
Размер потока: 1.23 GiB (85%)
Битрейт: 1 129 Kbps
Метод сжатия: Lossy
Библиотека кодирования: XviD 1.2.1 (UTC 2008-12-04)
Цветовое пространство: YUV
Тип развёртки: Progressive
Колориметрия: 4:2:0
Глубина: 8 bits
:
Тип потока: Звук #1
Длительность: 02:36:08.076
Кодек: AC-3
Кодек/описание: Audio Coding 3
Кодек/ID: 2000
Частота дискретизации: 48.0 KHz
Каналов: 2 channels
Битрейт: 192 Kbps
Битрейт/тип: Constant
Размер потока: 214 MiB (14%)
Глубина: 16 bits
Метод сжатия: Lossy

pb.wtf



Скачать Терминатор 2: Судный День через торрент http://pic1.kartinco.top/images/9/8akri.jpg Скачать фильм Терминатор 2: Судный День через торрент бесплантно в хорошем качестве Описание: Прошло более десяти лет с тех пор, как киборг-терминатор из 2029 года пытался уничтожить Сару Коннор — женщину, чей будущий сын ... 10 10 24
Info! Золотая раздача, скачанное не засчитывается.
Торрент: Зарегистрирован [2015-02-17 17:01] · скачан: 446 раз
Статус: √ проверено
Размер: 1.45 GB
Как cкачать? Как скачать Терминатор 2: Судный День через торрент | qTorrent

% Раздел Тема Автор DL S | L
Видео для КПК и Смартфонов [ 949 MB ] Терминатор 2: Судный день / Terminator 2: Judgment Day [1991 WEB-Rip КПК] DUB Cтрана Скачать
1 | 0
Фильмы [HD 720p, 1080p] (Хороший звук DUB, MVO) [ 9.2 GB ] Терминатор 2: Судный день / Terminator 2: Judgment Day [1991 BDRip 1080p HEVC MVO ] [Special Edition] [New Lionsgate Transfer] Мичман37 Скачать
1 | 0
Ultra HD (UHD: 2K, 4K, 8K) — видео сверхвысокой чёткости [ 15.76 GB ] Терминатор 2: Судный день / Terminator 2: Judgment Day [1991 UHD BDRip 2160p] [HDR] MVO [Twister] [Театральная версия] bober100 Скачать
3 | 0
Ultra HD (UHD: 2K, 4K, 8K) — видео сверхвысокой чёткости [ 71.07 GB ] Терминатор 2: Судный день / Terminator 2: Judgment Day [1991 UHD Blu-Ray 2160p] 9xMVO + AVO + VO sheker187 Скачать
2 | 0
3D Фильмы [ 19.66 GB ] Терминатор 2: Судный день в 3Д / Terminator 2: Judgment Day 3D [1991 BDrip Extended Special Edition 1080p] OverUnder / Вертикальная стереопара serega768 Скачать
1 | 0
Ultra HD (UHD: 2K, 4K, 8K) — видео сверхвысокой чёткости [ 53.24 GB ] Терминатор 2: Судный день / Terminator 2: Judgment Day [1991 BDRemux 2160p] 4xMVO + DVO + AVO + VO sheker187 Скачать
2 | 0
Фильмы [HD 720p, 1080p] (Хороший звук DUB, MVO) [ 16.7 GB ] Терминатор 2: Судный день / Terminator 2: Judgment Day [1991 BDRip 1080p 5xMVO+6xAVO] [Special Edition | Digital Remastered] Userman4ik Скачать
1 | 0


>> Регистрируемся здесь <<






Отзывы и комментарии о схеме читаем и пишем здесь: ---> Отзывы и комментарии о схеме

Новые благодарочки в телеграм довольных пользователей:
скриншот   скриншот   скриншот   скриншот   скриншот

17-02-2015 20:23 Терминатор 2: Судный День Скачать торрент  

Это полная версия? Есть моменты где терминатора учат улыбаться или выковыривают чип из головы и хотят расколотить его?pb.wtf



17-02-2015 20:31 Терминатор 2: Судный День Скачать торрент  

WarBlast писал(а):

Это полная версия? Есть моменты где терминатора учат улыбаться или выковыривают чип из головы и хотят расколотить его?

По продолжительности подходит, но это не режиссерская.pb.wtf



    Дорогой пользователь! Огромная просьба, поблагодарите релизера, оцените раздачу и оставьте свои комментарий, если Вы скачали Терминатор 2: Судный День через торрент бесплатно! Внесите свою лепту в развитие PiratBit!
    Комментировать посты могут только пользователи прошедшие не сложную регистрацию
    Показать сообщения:    

    Терминатор 2: Судный День через торрент
    Скачать бесплатно Терминатор 2: Судный День
    Терминатор 2: Судный День скачать торрент
    Терминатор 2: Судный День смотреть онлайн
    Cкачать фильм Терминатор 2: Судный День бесплатно
    Терминатор 2: Судный День скачать торрент в хорошем качестве
    Терминатор 2: Судный День смотреть онлайн бесплатно в хорошем качестве


    Вы не можете начинать темы
    Вы не можете отвечать на сообщения
    Вы не можете редактировать свои сообщения
    Вы не можете удалять свои сообщения
    Вы не можете голосовать в опросах
    Вы не можете прикреплять файлы к сообщениям
    Вы можете скачивать файлы