Всегда рабочее зеркало без VPN и Proxy просто перед .vidak.icu напиши любое слово или цифру, Пример http://ryiu.vidak.icu

MVO

2 сезон

1 сезон

1

1 сезон

iTunes

2 сезон

13

1 сезон

Deluxe

pack

Рекомендуем

Пиратка

30

ВАЖНО

RePack

MK11

RePack

jed

RePack

fifa19

RePack

RDR2

RePack

NEED FOR SPEED™ PAYBACK

Кинопоиск HD

6 сезон

 Острые козырьки 6 сезон

Все сериалы

все сериалы на PB.wtf

RePack

FAR CRY 5

Anonymous, нам критически не хватает 5601 руб. на оплату серверов и переферии за Апрель, помоги нам пожалуйста, вся надежда только на тебя. В благодарность мы отключим тебе всю рекламу на сайте!

×
  
Magnet ссылка

Шестой день / The 6th Day (Роджер Споттисвуд) [2000 г., Фантастика, боевик, триллер, BDRip, Дубляж] pb.wtf

Шестой день через торрент pb.wtf

Размер: 1.46 GB | Добавлен: 7 лет 3 мес. назад | Торрент скачан:224 раза
Смотреть онлайн Шестой день | Скачать    Ребята, помогите собрать деньги на оплату серверов!!!

17-02-2015 19:13 Шестой день Скачать торрент  

Шестой день / The 6th Day
Год выпуска: 2000
Страна: США
Жанр: Фантастика, боевик, триллер
Продолжительность: 02:03:37
Перевод: Дубляж
Субтитры: нет

Режиссер: Роджер Споттисвуд

В ролях: Арнольд Шварценеггер, Майкл Рапапорт, Тони Голдуин, Майкл Рукер, Сара Уайнтер, Венди Крюсон, Родни Роулэнд, Терри Крюс, Кен Поуг, Колин Каннингэм, Роберт Дювалл, Ванда Кэннон, Тейлор Энн Рейд, Дженнифер Гэрис, Дон МакМанус, Стив Бачич, Кристофер Лоуфорд, Марк Брэндон, Элли Харви, Дон С. Дэвис, Крис Каунд, Бен Басс, Роберт Кларк (III), Майкл Бадман, Уоррен Такэути, Клодин Грант, Александра Кастилло, Колин Лоуренс, Марк Гиббон, Брайан Дженсен, Кроуфорд Джеймс, Питер Кент, Хиро Канагава, Ми-Чжон Ли, Джиллиан Барбер, Джерард Планкет, Клер Райли, Эндрю МакИлрой, Норма Жан Уик, Пол Карсон, Грэхэм Эндрюс, Беннита Ха, Андреа Либман

Описание: Клонирование - хорошо это или нет? Человечество так и не определилось. Но в будущем закон о запрете выращивания человеческих клонов был принят безоговорочно. В честь дня сотворения человека Богом, его назвали "Законом Шестого Дня". Говорят, законы для того и существуют, чтобы нарушать их. И эта история не стала исключением. Всё началось тем поздним вечером, когда пилот вертолёта Адам Гибсон наконец оказался на пороге своего дома и увидел через окно, что он уже шумно празднует свой день рождения в кругу близких и друзей. Но попытавшись выяснить, что за двойник у него объявился, он оказался в центре заговора сторонников клонирования...

Качество: BDRip
Формат: AVI
Видео кодек: XviD
Аудио кодек: AC3
Видео: MPEG-4 ,Xvid (704x288), 1295 Кбит/с, 23.976 кадра/сек
Аудио#1: MP3,6 ch,384 kbps (Rus) 48.0 KHz Дублированный
скриншот   скриншот   скриншот  

Тип потока: Видео
Длительность: 02:03:37
Кодек: MPEG-4 Visual
Кодек/профиль: Advanced Simple@L5
Кодек/ID: XVID
Размеры изображения: 704 x 288 (2.40:1)
Частота кадров: 23.976 fps
Размер потока: 1.12 GiB (77%)
Битрейт: 1 296 Kbps
Метод сжатия: Lossy
Библиотека кодирования: XviD 73
Цветовое пространство: YUV
Тип развёртки: Progressive
Колориметрия: 4:2:0
Глубина: 8 bits
:
Тип потока: Звук #1
Длительность: 02:03:34.464
Кодек: AC-3
Кодек/описание: Audio Coding 3
Кодек/ID: 2000
Частота дискретизации: 48.0 KHz
Каналов: 6 channels
Битрейт: 384 Kbps
Битрейт/тип: Constant
Размер потока: 339 MiB (23%)
Глубина: 16 bits
Метод сжатия: Lossy

pb.wtf



Скачать Шестой день через торрент https://pic1.kartinco.top/images/9/q2oui.jpg Скачать, смотреть онлайн Шестой день бесплантно в хорошем качестве Описание: Клонирование - хорошо это или нет? Человечество так и не определилось. Но в будущем закон о запрете выращивания человеческих ... 10 10 7
Info! Золотая раздача, скачанное не засчитывается.
Торрент: Зарегистрирован [2015-02-17 19:13] · скачан: 224 раз
Статус: √ проверено
Размер: 1.46 GB
Как cкачать? Как скачать Шестой день через торрент | UTorrent

% Раздел Тема Автор DL S | L
R.G. Resident & PiratVoice - Фильмы, Видео [ 2.72 GB ] Шестой день / The 6th Day [2000 BDRip-AVC by schultz] Хорват Скачать
1 | 0
Фильмы (Blu-ray, BD-Remux, HDDVD) [ 33.78 GB ] Шестой день / The 6th Day [2000 Blu-ray CEE 1080p] DUB bober100 Скачать
1 | 0
Фильмы до 2000 г. [ 2.18 GB ] Шестой день / The 6th Day [2000 BDRip] chaga2009 Скачать
1 | 0
Фильмы с авторской озвучкой [ 1.85 GB ] Шестой день / The 6th Day [2000 BDRip] 2x[AVO] killermax2013 Скачать
1 | 0
Фильмы [HD 720p, 1080p] (Хороший звук DUB, MVO) [ 10.65 GB ] Шестой день / The 6th Day [2000 BDRip 1080p ] Бумер Скачать
1 | 0

28-11-2019 20:33  

Отключить всю рекламу на сайте

18-02-2015 12:46 Шестой день Скачать торрент  

Классный фильм! Давно не смотрел таких)))pb.wtf



    Дорогой пользователь! Огромная просьба, поблагодарите релизера, оцените раздачу и оставьте свои комментарий, если Вы скачали Шестой день через торрент бесплатно!
    Комментировать посты могут только пользователи прошедшие не сложную регистрацию
    Показать сообщения:    

    Шестой день через торрент
    Скачать бесплатно Шестой день
    Шестой день скачать торрент
    Шестой день смотреть онлайн
    Cкачать фильм Шестой день бесплатно
    Шестой день скачать торрент в хорошем качестве
    Шестой день смотреть онлайн бесплатно в хорошем качестве


    Вы не можете начинать темы
    Вы не можете отвечать на сообщения
    Вы не можете редактировать свои сообщения
    Вы не можете удалять свои сообщения
    Вы не можете голосовать в опросах
    Вы не можете прикреплять файлы к сообщениям
    Вы можете скачивать файлы