Ссылка на приватное зеркало нашего сайта всего за 1$. Внимание количество ограничено!!!

2 сезон

iTunes

1 сезон

1

iTunes

iTunes

iTunes

1 сезон

RePack

30

ИГРА 18+

pack

ВАЖНО

!!Акция!!

Alien_RageХит недели

RePack

MK11
pack

Забери бонус

RePack

jed

!!Акция!!

Alien_Rage

RePack

fifa19

RePack

Assassins Creed: Odyssey

RePack

NEED FOR SPEED™ PAYBACK

4 сезон

9 сезон

Бесстыжие 9 сезон

Все сериалы

все сериалы на PB.wtf

RePack

FAR CRY 5
  

Доброе имя (1-12 серии из 12) (Александр Аравин) [2014 г., детектив, комедия, HDTVRip (AVC)] pb.wtf

Доброе имя через торрент pb.wtf

Размер: 13.58 GB | Добавлен: 5 лет 8 мес. назад | Торрент скачан:137 раз
Скачать  

18-02-2015 07:23 Доброе имя Скачать торрент  

Доброе имя
Год выпуска: 2014
Страна: Россия
Жанр: детектив, комедия
Продолжительность: ~ 00:45:00

Режиссер: Александр Аравин

В ролях: Марат Башаров, Екатерина Вуличенко, Александр Самойленко, Иван Мацкевич, Константин Воробьёв, Анатолий Голуб, Павел Южаков-Харланчук, Анастасия Аравина, Василий Козлов, Сейдулла Молдаханов, Виктор Бабак

Описание: Антон Добряков, в прошлом капитан полиции, работает частным детективом. Благодаря своим незаурядным сыскным способностям, он раскрывает одно дело за другим. Однако Добряков с радостью вернулся бы в полицию. Проблема в том, что Добряков враждует с начальником ОВД Шубиным, после драки с которым он и уволился из органов. Добряков подозревает Шубина в покушении на Ивана Крестова, год назад руководившего этим ОВД.

Качество: HDTVRip (AVC)
Формат: MKV
Видео кодек: AVC
Аудио кодек: AC3
Видео: 1024x576 (16:9), 25.000 fps, 3 067 Kbps (0.208 bit/pixel)
Аудио#1: 48.0 KHz, 2 ch, 192 Kbps, CBR (Russian)
General
Unique ID : 233429602489574484171978043003504314503 (0xAF9CE7F867A7F9CA9DBE885A633A4887)
Complete name : G:\Русс сер\Доброе имя\Dobroe.imya.2014.HDTVRip.AVC\Dobroe.imya.(01.seriya).2014.HDTVRip.AVC.mkv
Format : Matroska
Format version : Version 4 / Version 2
File size : 1.04 GiB
Duration : 44mn 47s
Overall bit rate : 3 325 Kbps
Encoded date : UTC 2015-02-15 20:36:20
Writing application : mkvmerge v7.6.0 ('Garden of Dreams') 32bit built on Feb 8 2015 12:51:39
Writing library : libebml v1.3.1 + libmatroska v1.4.2
DURATION : 00:44:47.168000000
NUMBER_OF_FRAMES : 83974
NUMBER_OF_BYTES : 64492032
_STATISTICS_WRITING_APP : mkvmerge v7.6.0 ('Garden of Dreams') 32bit built on Feb 8 2015 12:51:39
_STATISTICS_WRITING_DATE_UT : 2015-02-15 20:36:20
_STATISTICS_TAGS : BPS DURATION NUMBER_OF_FRAMES NUMBER_OF_BYTES

Video
ID : 1
Format : AVC
Format/Info : Advanced Video Codec
Format profile : High@L4.1
Format settings, CABAC : Yes
Format settings, ReFrames : 8 frames
Codec ID : V_MPEG4/ISO/AVC
Duration : 44mn 47s
Bit rate : 3 067 Kbps
Width : 1 024 pixels
Height : 576 pixels
Display aspect ratio : 16:9
Frame rate mode : Constant
Frame rate : 25.000 fps
Color space : YUV
Chroma subsampling : 4:2:0
Bit depth : 8 bits
Scan type : Progressive
Bits/(Pixel*Frame) : 0.208
Stream size : 983 MiB (92%)
Writing library : x264 core 142 r2431 ac76440
Encoding settings : cabac=1 / ref=8 / deblock=1:-3:-3 / analyse=0x3:0x133 / me=umh / subme=9 / psy=1 / psy_rd=1.00:0.00 / mixed_ref=1 / me_range=24 / chroma_me=1 / trellis=2 / 8x8dct=1 / cqm=0 / deadzone=21,11 / fast_pskip=1 / chroma_qp_offset=-2 / threads=12 / lookahead_threads=1 / sliced_threads=0 / nr=0 / decimate=1 / interlaced=0 / bluray_compat=0 / constrained_intra=0 / bframes=6 / b_pyramid=2 / b_adapt=2 / b_bias=0 / direct=3 / weightb=1 / open_gop=0 / weightp=2 / keyint=250 / keyint_min=25 / scenecut=40 / intra_refresh=0 / rc_lookahead=60 / rc=crf / mbtree=1 / crf=18.0 / qcomp=0.60 / qpmin=10 / qpmax=51 / qpstep=4 / vbv_maxrate=62500 / vbv_bufsize=78125 / crf_max=0.0 / nal_hrd=none / filler=0 / ip_ratio=1.40 / aq=1:1.00
Language : Russian
Default : Yes
Forced : No
DURATION : 00:44:47.200000000
NUMBER_OF_FRAMES : 67180
NUMBER_OF_BYTES : 1051881489
_STATISTICS_WRITING_APP : mkvmerge v7.6.0 ('Garden of Dreams') 32bit built on Feb 8 2015 12:51:39
_STATISTICS_WRITING_DATE_UT : 2015-02-15 20:36:20
_STATISTICS_TAGS : BPS DURATION NUMBER_OF_FRAMES NUMBER_OF_BYTES

Audio
ID : 2
Format : AC-3
Format/Info : Audio Coding 3
Mode extension : CM (complete main)
Format settings, Endianness : Big
Codec ID : A_AC3
Duration : 44mn 47s
Bit rate mode : Constant
Bit rate : 192 Kbps
Channel(s) : 2 channels
Channel positions : Front: L R
Sampling rate : 48.0 KHz
Bit depth : 16 bits
Compression mode : Lossy
Stream size : 61.5 MiB (6%)
Language : Russian
Default : Yes
Forced : No

pb.wtf



Скачать Доброе имя через торрент http://pic1.kartinco.top/images/9/jenvj.jpg Скачать фильм Доброе имя через торрент бесплантно в хорошем качестве Описание: Антон Добряков, в прошлом капитан полиции, работает частным детективом. Благодаря своим незаурядным сыскным способностям, он ... 10 10 4
Info! Золотая раздача, скачанное не засчитывается.
Торрент: Зарегистрирован [2015-02-18 07:23] · скачан: 137 раз
Статус: √ проверено
Размер: 13.58 GB
Как cкачать? Как скачать Доброе имя через торрент | qTorrent

28-11-2019 20:33  

Отключить всю рекламу на сайте

    Дорогой пользователь! Огромная просьба, поблагодарите релизера, оцените раздачу и оставьте свои комментарий, если Вы скачали Доброе имя через торрент бесплатно! Внесите свою лепту в развитие PiratBit!
    Комментировать посты могут только пользователи прошедшие не сложную регистрацию
    Показать сообщения:    

    Доброе имя через торрент
    Скачать бесплатно Доброе имя
    Доброе имя скачать торрент
    Доброе имя смотреть онлайн
    Cкачать фильм Доброе имя бесплатно
    Доброе имя скачать торрент в хорошем качестве
    Доброе имя смотреть онлайн бесплатно в хорошем качестве


    Вы не можете начинать темы
    Вы не можете отвечать на сообщения
    Вы не можете редактировать свои сообщения
    Вы не можете удалять свои сообщения
    Вы не можете голосовать в опросах
    Вы не можете прикреплять файлы к сообщениям
    Вы можете скачивать файлы