Ссылка на приватное зеркало нашего сайта всего за 1$. Внимание количество ограничено!!!

2 сезон

iTunes

1 сезон

1

iTunes

iTunes

iTunes

1 сезон

RePack

30

ИГРА 18+

pack

ВАЖНО

!!Акция!!

Alien_RageХит недели

RePack

MK11
pack

Забери бонус

RePack

jed

!!Акция!!

Alien_Rage

RePack

fifa19

RePack

Assassins Creed: Odyssey

RePack

NEED FOR SPEED™ PAYBACK

4 сезон

9 сезон

Бесстыжие 9 сезон

Все сериалы

все сериалы на PB.wtf

RePack

FAR CRY 5
  

Студентка / L' Etudiante (Клод Пиното) [1988, мелодрама, комедия, BDRip 1080p] DUB, 2 x MVO, VO pb.wtf

Студентка через торрент pb.wtf

Размер: 16.88 GB | Добавлен: 5 лет 8 мес. назад | Торрент скачан:8 раз
Скачать  

18-02-2015 08:24 Студентка Скачать торрент  

Студентка / L' Etudiante

Год выпуска: 1988
Страна: Франция
Жанр: мелодрама, комедия
Продолжительность: 01:43:58
Перевод: дублированный, профессиональный многоголосый, одноголосый закадровый
Субтитры: нет

Режиссёр: Клод Пиното

В ролях: Софи Марсо, Венсан Линдон, Элизабет Витали, Жан-Клод Легэ, Элена Помпеи, Роберто Эттиэс, Бриджитт Шамаранд, Кристиан Перейра, Беппе Черличи, Натали Манн

Описание: Валентина выросла, ей исполнился двадцать один год, и она сейчас подрабатывает учительницей, готовясь к важным экзаменам в университете. В это время она встречает Неда, музыканта, который надеется когда-нибудь стать композитором. Несмотря на то что они оба работают в разное время и с трудом находят время для встреч, между ними возникает пылкая связь. И на экзамене в Сорбонне Валентина анализирует свои отношения с Недом при рассмотрении сухой диссертации по мольеровскому «Мизантропу»...



Качество: BDRip 1080p
Формат: MKV
Видео кодек: H.264
Аудио кодек: AC3, DTS
Видео: 16.5 Mбит/с, 1920x1030, 23.976 кадра/с, 0.349 bpp
Аудио 1: русский, DTS, 768 kbps, 1 ch, 48 kHz [дублированный]
Аудио 2: русский, DTS, 1509 kbps, 2 ch, 48 kHz [профессиональный многоголосый, HTB+, CTC]
Аудио 3: русский, DTS, 1509 kbps, 2 ch, 48 kHz [профессиональный многоголосый, Союз-Видео]
Аудио 4: русский, DTS, 1509 kbps, 2 ch, 48 kHz [закадровый одноголосый, Н. Дружинина]

Отдельные файлы
Аудио: русский, AC3, 192 kbps, 1 ch, 48 kHz [дублированный]
Аудио: русский, AC3, 192 kbps, 2 ch, 48 kHz [профессиональный многоголосый, HTB+, CTC]
Аудио: русский, AC3, 192 kbps, 2 ch, 48 kHz [профессиональный многоголосый, Союз-Видео]
Аудио: русский, AC3, 192 kbps, 2 ch, 48 kHz [закадровый одноголосый, Н. Дружинина]
Аудио: французский, AC3, 192 kbps, 2 ch, 48 kHz [оригинал]

Имеются неименованные главы/чаптеры.
Общее
Полное имя : D:VideoStudentka.1988.BDRip.1080pStudentka.1988.AVO.rus.Н.Дружинина.ac3
Формат : AC-3
Формат/Информация : Audio Coding 3
Размер файла : 143 Мбайт
Продолжительность : 1 ч. 43 м.
Режим общего битрейта : Постоянный
Общий поток : 192 Кбит/сек

Аудио
Формат : AC-3
Формат/Информация : Audio Coding 3
Расширение режима : CM (complete main)
Параметр Endianness формата : Big
Продолжительность : 1 ч. 43 м.
Вид битрейта : Постоянный
Битрейт : 192 Кбит/сек
Каналы : 2 канала
Расположение каналов : Front: L R
Частота : 48,0 КГц
Битовая глубина : 16 бит
Метод сжатия : С потерями
Размер потока : 143 Мбайт (100%)

Общее
Уникальный идентификатор : 254681342370334856636576997064164754131 (0xBF99D7A49008F2AD9F666834F76BC2D3)
Полное имя : D:VideoStudentka.1988.BDRip.1080pStudentka.1988.BDRip.1080p.mkv
Формат : Matroska
Версия формата : Version 4 / Version 2
Размер файла : 16,2 Гбайт
Продолжительность : 1 ч. 43 м.
Общий поток : 22,3 Мбит/сек
Дата кодирования : UTC 2015-02-17 17:58:21
Программа кодирования : mkvmerge v7.6.0 ('Garden of Dreams') 64bit built on Feb 8 2015 13:04:34
Библиотека кодирования : libebml v1.3.1 + libmatroska v1.4.2
DURATION : 01:43:58.902000000
NUMBER_OF_FRAMES : 584897
NUMBER_OF_BYTES : 1176812828
_STATISTICS_WRITING_APP : mkvmerge v7.6.0 ('Garden of Dreams') 64bit built on Feb 8 2015 13:04:34
_STATISTICS_WRITING_DATE_UTC : 2015-02-17 17:58:21
_STATISTICS_TAGS : BPS DURATION NUMBER_OF_FRAMES NUMBER_OF_BYTES

Видео
Идентификатор : 1
Формат : AVC
Формат/Информация : Advanced Video Codec
Профиль формата : High@L4.1
Параметр CABAC формата : Да
Параметр ReFrames формата : 4 кадра
Идентификатор кодека : V_MPEG4/ISO/AVC
Продолжительность : 1 ч. 43 м.
Битрейт : 16,5 Мбит/сек
Ширина : 1920 пикселей
Высота : 1030 пикселей
Соотношение сторон : 1,85:1
Режим частоты кадров : Постоянный
Частота кадров : 23,976 кадра/сек
Цветовое пространство : YUV
Субдискретизация насыщенности : 4:2:0
Битовая глубина : 8 бит
Тип развёртки : Прогрессивная
Бит/(Пиксели*Кадры) : 0.349
Размер потока : 12,0 Гбайт (74%)
Библиотека кодирования : x264 core 142 r2431 ac76440
Настройки программы : cabac=1 / ref=4 / deblock=1:-1:-1 / analyse=0x3:0x113 / me=umh / subme=10 / psy=1 / psy_rd=1.00:0.15 / mixed_ref=1 / me_range=32 / chroma_me=1 / trellis=2 / 8x8dct=1 / cqm=0 / deadzone=21,11 / fast_pskip=1 / chroma_qp_offset=-3 / threads=6 / lookahead_threads=1 / sliced_threads=0 / nr=0 / decimate=1 / interlaced=0 / bluray_compat=0 / constrained_intra=0 / bframes=8 / b_pyramid=2 / b_adapt=2 / b_bias=0 / direct=3 / weightb=1 / open_gop=0 / weightp=2 / keyint=230 / keyint_min=23 / scenecut=40 / intra_refresh=0 / rc_lookahead=40 / rc=crf / mbtree=0 / crf=18.5 / qcomp=0.60 / qpmin=0 / qpmax=69 / qpstep=4 / vbv_maxrate=40000 / vbv_bufsize=50000 / crf_max=0.0 / nal_hrd=none / filler=0 / ip_ratio=1.40 / pb_ratio=1.30 / aq=1:1.00
Язык : French
Default : Да
Forced : Нет
DURATION : 01:43:58.816000000
NUMBER_OF_FRAMES : 149582
NUMBER_OF_BYTES : 13241594763
_STATISTICS_WRITING_APP : mkvmerge v7.6.0 ('Garden of Dreams') 64bit built on Feb 8 2015 13:04:34
_STATISTICS_WRITING_DATE_UTC : 2015-02-17 17:58:21
_STATISTICS_TAGS : BPS DURATION NUMBER_OF_FRAMES NUMBER_OF_BYTES

Аудио #1
Идентификатор : 2
Формат : DTS
Формат/Информация : Digital Theater Systems
Режим : 16
Параметр Endianness формата : Big
Идентификатор кодека : A_DTS
Продолжительность : 1 ч. 43 м.
Вид битрейта : Постоянный
Битрейт : 768 Кбит/сек
Каналы : 1 канал
Расположение каналов : Front: C
Частота : 48,0 КГц
Битовая глубина : 16 бит
Метод сжатия : С потерями
Размер потока : 571 Мбайт (3%)
Заголовок : DUB
Язык : Russian
Default : Да
Forced : Нет

Аудио #2
Идентификатор : 3
Формат : DTS
Формат/Информация : Digital Theater Systems
Режим : 16
Параметр Endianness формата : Big
Идентификатор кодека : A_DTS
Продолжительность : 1 ч. 43 м.
Вид битрейта : Постоянный
Битрейт : 1509 Кбит/сек
Каналы : 2 канала
Расположение каналов : Front: L R
Частота : 48,0 КГц
Битовая глубина : 16 бит
Метод сжатия : С потерями
Размер потока : 1,10 Гбайт (7%)
Заголовок : MVO (HTB+, CTC)
Язык : Russian
Default : Нет
Forced : Нет

Аудио #3
Идентификатор : 4
Формат : DTS
Формат/Информация : Digital Theater Systems
Режим : 16
Параметр Endianness формата : Big
Идентификатор кодека : A_DTS
Продолжительность : 1 ч. 43 м.
Вид битрейта : Постоянный
Битрейт : 1509 Кбит/сек
Каналы : 2 канала
Расположение каналов : Front: L R
Частота : 48,0 КГц
Битовая глубина : 16 бит
Метод сжатия : С потерями
Размер потока : 1,10 Гбайт (7%)
Заголовок : MVO (Союз-Видео)
Язык : Russian
Default : Нет
Forced : Нет

Аудио #4
Идентификатор : 5
Формат : DTS
Формат/Информация : Digital Theater Systems
Режим : 16
Параметр Endianness формата : Big
Идентификатор кодека : A_DTS
Продолжительность : 1 ч. 43 м.
Вид битрейта : Постоянный
Битрейт : 1509 Кбит/сек
Каналы : 2 канала
Расположение каналов : Front: L R
Частота : 48,0 КГц
Битовая глубина : 16 бит
Метод сжатия : С потерями
Размер потока : 1,10 Гбайт (7%)
Заголовок : AVO (Н. Дружинина)
Язык : Russian
Default : Нет
Forced : Нет

Меню
00:00:00.000 : :Chapter 01
00:05:49.390 : :Chapter 02
00:09:29.110 : :Chapter 03
00:20:36.944 : :Chapter 04
00:29:01.406 : :Chapter 05
00:38:55.041 : :Chapter 06
00:44:43.055 : :Chapter 07
00:52:08.125 : :Chapter 08
00:55:08.305 : :Chapter 09
01:04:00.545 : :Chapter 10
01:10:14.835 : :Chapter 11
01:19:02.946 : :Chapter 12
01:26:43.615 : :Chapter 13
01:32:02.850 : :Chapter 14
01:43:58.148 : :Chapter 15

Общее
Полное имя : D:VideoStudentka.1988.BDRip.1080pStudentka.1988.DUB.rus.ac3
Формат : AC-3
Формат/Информация : Audio Coding 3
Размер файла : 143 Мбайт
Продолжительность : 1 ч. 43 м.
Режим общего битрейта : Постоянный
Общий поток : 192 Кбит/сек

Аудио
Формат : AC-3
Формат/Информация : Audio Coding 3
Расширение режима : CM (complete main)
Параметр Endianness формата : Big
Продолжительность : 1 ч. 43 м.
Вид битрейта : Постоянный
Битрейт : 192 Кбит/сек
Каналы : 1 канал
Расположение каналов : Front: C
Частота : 48,0 КГц
Битовая глубина : 16 бит
Метод сжатия : С потерями
Размер потока : 143 Мбайт (100%)

Общее
Полное имя : D:VideoStudentka.1988.BDRip.1080pStudentka.1988.MVO.rus.НТВ+,СТС.ac3
Формат : AC-3
Формат/Информация : Audio Coding 3
Размер файла : 143 Мбайт
Продолжительность : 1 ч. 43 м.
Режим общего битрейта : Постоянный
Общий поток : 192 Кбит/сек

Аудио
Формат : AC-3
Формат/Информация : Audio Coding 3
Расширение режима : CM (complete main)
Параметр Endianness формата : Big
Продолжительность : 1 ч. 43 м.
Вид битрейта : Постоянный
Битрейт : 192 Кбит/сек
Каналы : 2 канала
Расположение каналов : Front: L R
Частота : 48,0 КГц
Битовая глубина : 16 бит
Метод сжатия : С потерями
Размер потока : 143 Мбайт (100%)

Общее
Полное имя : D:VideoStudentka.1988.BDRip.1080pStudentka.1988.MVO.rus.Союз-Видео.ac3
Формат : AC-3
Формат/Информация : Audio Coding 3
Размер файла : 143 Мбайт
Продолжительность : 1 ч. 43 м.
Режим общего битрейта : Постоянный
Общий поток : 192 Кбит/сек

Аудио
Формат : AC-3
Формат/Информация : Audio Coding 3
Расширение режима : CM (complete main)
Параметр Endianness формата : Big
Продолжительность : 1 ч. 43 м.
Вид битрейта : Постоянный
Битрейт : 192 Кбит/сек
Каналы : 2 канала
Расположение каналов : Front: L R
Частота : 48,0 КГц
Битовая глубина : 16 бит
Метод сжатия : С потерями
Размер потока : 143 Мбайт (100%)

Общее
Полное имя : D:VideoStudentka.1988.BDRip.1080pStudentka.1988.Original.fre.ac3
Формат : AC-3
Формат/Информация : Audio Coding 3
Размер файла : 143 Мбайт
Продолжительность : 1 ч. 43 м.
Режим общего битрейта : Постоянный
Общий поток : 192 Кбит/сек

Аудио
Формат : AC-3
Формат/Информация : Audio Coding 3
Расширение режима : CM (complete main)
Параметр Endianness формата : Big
Продолжительность : 1 ч. 43 м.
Вид битрейта : Постоянный
Битрейт : 192 Кбит/сек
Каналы : 2 канала
Расположение каналов : Front: L R
Частота : 48,0 КГц
Битовая глубина : 16 бит
Метод сжатия : С потерями
Размер потока : 143 Мбайт (100%)
pb.wtf



Скачать Студентка через торрент http://i64.fastpic.ru/big/2015/0218/45/d84e071d4913b5ae8ef778cec8d07945.jpg Скачать фильм Студентка через торрент бесплантно в хорошем качестве Описание: Валентина выросла, ей исполнился двадцать один год, и она сейчас подрабатывает учительницей, готовясь к важным экзаменам в ... 10 10 1
Info! Серебряная раздача, засчитывается только 50% скачанного.
Торрент: Зарегистрирован [2015-02-18 08:24] · скачан: 8 раз
Статус: √ проверено
Размер: 16.88 GB
Как cкачать? Как скачать Студентка через торрент | qTorrent

28-11-2019 20:33  

Отключить всю рекламу на сайте

    Дорогой пользователь! Огромная просьба, поблагодарите релизера, оцените раздачу и оставьте свои комментарий, если Вы скачали Студентка через торрент бесплатно! Внесите свою лепту в развитие PiratBit!
    Комментировать посты могут только пользователи прошедшие не сложную регистрацию
    Показать сообщения:    

    Студентка через торрент
    Скачать бесплатно Студентка
    Студентка скачать торрент
    Студентка смотреть онлайн
    Cкачать фильм Студентка бесплатно
    Студентка скачать торрент в хорошем качестве
    Студентка смотреть онлайн бесплатно в хорошем качестве


    Вы не можете начинать темы
    Вы не можете отвечать на сообщения
    Вы не можете редактировать свои сообщения
    Вы не можете удалять свои сообщения
    Вы не можете голосовать в опросах
    Вы не можете прикреплять файлы к сообщениям
    Вы можете скачивать файлы