Мега распродажа FORZA HORIZON 4 ULTIMATE+ВСЕ DLC+ОНЛАЙН всего за 499р. 349 руб. (супер цена). Внимание количество ограничено!!!

iTunes

1+1

iTunes

мы

iTunes

1

1 сезон

Чернобыль

1 сезон

Ральф против интернета

Лицензия

ПШазам

8 сезон

Игра престолов

Лицензия

30
pack

ВАЖНО

!!Акция!!

Alien_RageХит недели

RePack

Resident Evil 21

ИГРА 18+

pack

RePack

Metro:Exodus

!!Акция!!

Alien_Rage

RePack

fifa19

RePack

Assassins Creed: Odyssey

RePack

NEED FOR SPEED™ PAYBACK

3 сезон

9 сезон

Бесстыжие 9 сезон

Все сериалы

все сериалы на PB.wtf

RePack

FAR CRY 5
Ребята, катастрофически не хватает 2730р. для оплаты серверов за ИЮНЬ (всвязи с блокировками трафик упал в 3 раза), 1-2р., выручайте.
  

Такси / Taxi (Жерар Пирес) [1998 г., Боевик, комедия, криминал, BDRip, Дубляж] pb.wtf

Такси через торрент pb.wtf

Размер: 743 MB | Добавлен: 4 года 4 мес. назад | Торрент скачан:21 раз
Скачать  

18-02-2015 08:41 Такси Скачать торрент  

Такси / Taxi
Год выпуска: 1998
Страна: Франция
Жанр: Боевик, комедия, криминал
Продолжительность: 01:29:50
Перевод: Дубляж
Субтитры: нет

Режиссер: Жерар Пирес

В ролях: Сами Насери, Фредерик Дифенталь, Марион Котийяр, Мануэла Гурари, Эмма Сьоберг, Бернар Фарси, Жорж Нери, Эдуард Монтут, Гай Нгуен, Морис Мурсия, Сабина Бэйл, Дэн Херцберг, Себастьян Тьери, Эрик Беренжер, Филипп дю Жанеран, Кристоф Феске, Жерар Вантагьоли, Тара Ромер, Кристиан Мазуччини, Гийом Лэнсон, Себастьен Понс, Малек Бешар, Жерар Дюбуш, Рихард Заммель, Нильс Дюбо, Франк Либерт, Доминик Ноэ, Пьер Бришес, Стефан Криш, Пол Фруктус, Грегори Кноп, Денис Браччини, Бернар Детуш

Описание: Молодой таксист Даниэль помешан на быстрой езде. Как ураган проносится он по извилистым улицам Марселя на своем мощном ревущем звере «Пежо», пугая пассажиров и прохожих. Неподкупный полицейский Эмильен вынуждает его помочь в поимке банды грабителей, ускользающих от полиции на своих неуловимых «Мерседесах». И до самого конца не ясно, кто же сможет удержаться на крутом вираже...

Качество: BDRip
Формат: AVI
Видео кодек: XviD
Аудио кодек: MP3
Видео: MPEG-4 ,Xvid (640x272), 1018 Кбит/с, 23.976 кадра/сек
Аудио#1: MP3,2 ch,128 kbps (Rus) 48.0 KHz Дублированный
скриншот   скриншот   скриншот  

Тип потока: Видео
Длительность: 01:29:50
Кодек: MPEG-4 Visual
Кодек/профиль: Advanced Simple@L5
Кодек/ID: XVID
Размеры изображения: 640 x 272 (2.35:1)
Частота кадров: 23.976 fps
Размер потока: 654 MiB (88%)
Битрейт: 1 018 Kbps
Метод сжатия: Lossy
Библиотека кодирования: XviD 73
Цветовое пространство: YUV
Тип развёртки: Progressive
Колориметрия: 4:2:0
Глубина: 8 bits
:
Тип потока: Звук #1
Длительность: 01:29:50.352
Кодек: MPEG Audio
Кодек/профиль: Layer 3
Кодек/ID: 55
Частота дискретизации: 48.0 KHz
Каналов: 2 channels
Битрейт: 128 Kbps
Битрейт/тип: Constant
Размер потока: 82.3 MiB (11%)
Метод сжатия: Lossy

pb.wtf



Скачать Такси через торрент http://pic1.kartinco.top/images/9/3hjtc.jpg Скачать фильм Такси через торрент бесплантно в хорошем качестве Описание: Молодой таксист Даниэль помешан на быстрой езде. Как ураган проносится он по извилистым улицам Марселя на своем мощном ревущем ... 10 10 3
Торрент: Зарегистрирован [2015-02-18 08:41] · скачан: 21 раз
Статус: √ проверено
Размер: 743 MB
Как cкачать? Как скачать Такси через торрент | qTorrent

% Раздел Тема Автор DL S | L
Фильмы 2018 [DVDrip, WEB-DLRip, HDrip] (DUB, MVO) [ 1.42 GB ] Такси 5 / Taxi 5 [2018 BDRip] bober100 Скачать
13 | 1
Фильмы 2018 [DVDrip, WEB-DLRip, HDrip] (DUB, MVO) [ 746 MB ] Такси 5 / Taxi 5 [2018 BDRip] bober100 Скачать
3 | 0
Сборники и Сиквелы (48-60 fps) [ 12.94 GB ] Такси: Квадрология / Taxi: Quadrilogy [1998-2007 BDRip-AVC 60fps DUB MVO DVO] от R.G. HD-Films Tiberiumsun69 Скачать
9 | 0
Фильмы [HD 720p, 1080p] (Хороший звук DUB, MVO) [ 7.37 GB ] Такси 5 / Taxi 5 [2018 BDRip 1080p] -Lexx- Скачать
5 | 1
Фильмы (Blu-ray, BD-Remux, HDDVD) [ 20.73 GB ] Такси 5 / Taxi 5 [2018 BD Remux 1080p] bober100 Скачать
2 | 0


>> Регистрируемся здесь <<






Отзывы и комментарии о схеме читаем и пишем здесь: ---> Отзывы и комментарии о схеме

Новые благодарочки в телеграм довольных пользователей:
скриншот   скриншот   скриншот   скриншот   скриншот
    Дорогой пользователь! Огромная просьба, поблагодарите релизера, оцените раздачу и оставьте свои комментарий, если Вы скачали Такси через торрент бесплатно! Внесите свою лепту в развитие PiratBit!
    Комментировать посты могут только пользователи прошедшие не сложную регистрацию
    Показать сообщения:    

    Такси через торрент
    Скачать бесплатно Такси
    Такси скачать торрент
    Такси смотреть онлайн
    Cкачать фильм Такси бесплатно
    Такси скачать торрент в хорошем качестве
    Такси смотреть онлайн бесплатно в хорошем качестве


    Вы не можете начинать темы
    Вы не можете отвечать на сообщения
    Вы не можете редактировать свои сообщения
    Вы не можете удалять свои сообщения
    Вы не можете голосовать в опросах
    Вы не можете прикреплять файлы к сообщениям
    Вы можете скачивать файлы